VERSION	0.00.00	1.03.00
FES_MODE	0
BPM_DEF	180.000	180.000	180.000	180.000
MET_DEF	4	4
RESOLUTION	384
CLK_DEF	384
COMPATIBLE_CODE	MA2

BPM	0	0	180.000
MET	0	0	4	4

TAP	1	0	2
TAP	1	96	2
TAP	1	192	3
TAP	1	288	3
TAP	2	0	2
TAP	2	96	3
TAP	2	192	2
TAP	3	0	5
TAP	3	96	5
TAP	3	192	4
TAP	3	288	4
TAP	4	0	5
TAP	4	96	4
TAP	4	192	5
TAP	5	0	3
TAP	5	96	4
TAP	5	192	3
TAP	5	288	4
TAP	6	0	3
TAP	6	0	4
TAP	6	96	3
TAP	6	96	4
TAP	6	192	3
TAP	6	192	4
TAP	7	0	3
TAP	7	96	4
TAP	7	192	3
TAP	7	288	3
TAP	7	288	4
TAP	7	336	3
TAP	7	336	4
TAP	8	48	3
TAP	8	48	4
BRK	8	144	3
BRK	8	144	4
STR	9	0	3
SCL	9	0	3	96	192	0
STR	9	0	4
SCR	9	0	4	96	192	7
TAP	10	0	0
TAP	10	96	0
TAP	10	192	1
TAP	10	288	1
TAP	11	0	2
TAP	11	96	2
TAP	11	192	3
TAP	11	288	3
TAP	12	0	4
TAP	12	96	4
TAP	12	192	5
TAP	12	288	5
TAP	13	0	6
TAP	13	0	7
TAP	13	96	6
TAP	13	96	7
TAP	13	192	6
TAP	13	192	7
TAP	14	0	7
TAP	14	96	7
TAP	14	192	6
TAP	14	288	6
TAP	15	0	5
TAP	15	96	5
TAP	15	192	4
TAP	15	288	4
TAP	16	0	3
TAP	16	96	3
TAP	16	192	2
TAP	16	288	2
TAP	17	0	0
TAP	17	0	1
TAP	17	96	0
TAP	17	96	1
TAP	17	192	0
TAP	17	192	1
HLD	18	0	2	192
TAP	18	192	3
TAP	18	288	3
HLD	19	0	5	192
TAP	19	192	4
TAP	19	288	4
HLD	20	0	3	192
HLD	20	192	4	192
TAP	21	0	3
TAP	21	96	4
TAP	21	192	3
TAP	21	288	4
HLD	22	0	1	192
TAP	22	192	3
TAP	22	288	3
HLD	23	0	6	192
TAP	23	192	4
TAP	23	288	4
HLD	24	0	3	192
HLD	24	192	4	192
TAP	25	0	3
TAP	25	96	2
TAP	25	96	3
TAP	25	192	4
TAP	25	288	4
TAP	25	288	5
HLD	26	0	1	192
TAP	26	192	2
TAP	26	288	3
HLD	27	0	6	192
TAP	27	192	5
TAP	27	288	4
HLD	28	0	3	192
HLD	28	192	4	192
STR	29	0	3
SCL	29	0	3	96	96	1
STR	29	192	4
SCR	29	192	4	96	96	6
HLD	30	0	2	192
TAP	30	192	1
TAP	30	288	0
HLD	31	0	5	192
TAP	31	192	6
TAP	31	288	7
HLD	32	0	0	192
HLD	32	0	7	192
TAP	33	0	0
TAP	33	0	1
TAP	33	96	0
TAP	33	96	1
TAP	33	192	6
TAP	33	192	7
TAP	33	288	6
TAP	33	288	7
STR	34	0	1
SI_	34	0	1	96	192	4
STR	35	0	6
SI_	35	0	6	96	192	3
STR	36	0	1
SCR	36	0	1	96	192	4
STR	37	0	6
SCL	37	0	6	96	192	3
STR	38	0	0
SLR	38	0	0	96	288	4
STR	39	0	7
SLL	39	0	7	96	288	3
STR	40	0	0
SF_	40	0	0	96	480	4
BRK	42	0	0
BRK	42	96	0
BRK	42	192	7
BRK	42	288	7
TAP	43	0	2
TAP	43	96	2
TAP	43	192	2
TAP	43	192	3
TAP	43	288	2
TAP	43	288	3
TAP	44	0	5
TAP	44	96	5
TAP	44	192	4
TAP	44	192	5
TAP	44	288	4
TAP	44	288	5
TAP	45	0	3
TAP	45	0	4
TAP	45	96	2
TAP	45	96	3
TAP	45	192	3
TAP	45	192	4
TAP	45	288	4
TAP	45	288	5
HLD	46	0	3	192
HLD	46	0	4	192
TAP	47	0	2
TAP	47	96	2
TAP	47	192	1
TAP	47	192	3
TAP	47	288	1
TAP	47	288	3
TAP	48	0	5
TAP	48	96	5
TAP	48	192	4
TAP	48	192	6
TAP	48	288	4
TAP	48	288	6
TAP	49	0	2
TAP	49	96	2
TAP	49	96	3
TAP	49	192	2
TAP	49	288	2
TAP	49	288	3
TAP	50	0	5
TAP	50	96	4
TAP	50	96	5
TAP	50	192	5
TAP	50	288	4
TAP	50	288	5
TAP	51	0	6
TAP	51	96	6
TAP	51	192	6
TAP	51	192	7
TAP	51	288	6
TAP	51	288	7
TAP	52	0	1
TAP	52	96	1
TAP	52	192	0
TAP	52	192	1
TAP	52	288	0
TAP	52	288	1
TAP	53	0	0
TAP	53	0	7
TAP	53	96	6
TAP	53	96	7
TAP	53	192	0
TAP	53	192	7
TAP	53	288	0
TAP	53	288	1
HLD	54	0	0	192
HLD	54	0	7	192
TAP	55	0	6
TAP	55	96	6
TAP	55	192	5
TAP	55	192	7
TAP	55	288	5
TAP	55	288	7
TAP	56	0	1
TAP	56	96	1
TAP	56	192	0
TAP	56	192	2
TAP	56	288	0
TAP	56	288	2
TAP	57	0	6
TAP	57	96	6
TAP	57	96	7
TAP	57	192	6
TAP	57	288	6
TAP	57	288	7
TAP	58	0	1
TAP	58	96	0
TAP	58	96	1
TAP	58	192	1
TAP	58	288	0
TAP	58	288	1
STR	59	0	0
SI_	59	0	0	96	192	5
STR	59	0	1
SI_	59	0	1	96	192	4
TAP	60	0	4
TAP	60	0	5
TAP	60	96	4
TAP	60	96	5
BRK	60	192	3
BRK	60	192	6
STR	61	0	6
SI_	61	0	6	96	192	3
STR	61	0	7
SI_	61	0	7	96	192	2
TAP	62	0	2
TAP	62	0	3
TAP	62	96	2
TAP	62	96	3
BRK	62	192	1
BRK	62	192	4
STR	63	0	4
SI_	63	0	4	96	192	1
STR	63	0	5
SI_	63	0	5	96	192	0
TAP	64	0	0
TAP	64	0	1
TAP	64	96	0
TAP	64	96	1
BRK	64	192	2
BRK	64	192	7
STR	65	0	2
SI_	65	0	2	96	192	7
STR	65	0	3
SI_	65	0	3	96	192	6
TAP	66	0	6
TAP	66	0	7
TAP	66	96	6
TAP	66	96	7
BRK	66	192	0
BRK	66	192	5
STR	67	0	0
SCL	67	0	0	96	192	5
STR	67	0	1
SCR	67	0	1	96	192	4
TAP	68	0	4
TAP	68	0	5
TAP	68	96	4
TAP	68	96	5
BRK	68	192	3
BRK	68	192	6
STR	69	0	6
SCL	69	0	6	96	192	3
STR	69	0	7
SCR	69	0	7	96	192	2
TAP	70	0	2
TAP	70	0	3
TAP	70	96	2
TAP	70	96	3
BRK	70	192	1
BRK	70	192	4
STR	71	0	4
SCL	71	0	4	96	192	1
STR	71	0	5
SCR	71	0	5	96	192	0
TAP	72	0	0
TAP	72	0	1
TAP	72	96	0
TAP	72	96	1
BRK	72	192	2
BRK	72	192	7
STR	73	0	2
SCL	73	0	2	96	192	7
STR	73	0	3
SCR	73	0	3	96	192	6
TAP	74	0	6
TAP	74	0	7
TAP	74	96	6
TAP	74	96	7
BRK	74	192	0
BRK	74	192	5
STR	75	0	7
SF_	75	0	7	96	480	3

T_REC_TAP	223
T_REC_BRK	22
T_REC_XTP	0
T_REC_HLD	20
T_REC_XHO	0
T_REC_STR	28
T_REC_BST	0
T_REC_XST	0
T_REC_TTP	0
T_REC_THO	0
T_REC_SLD	28
T_REC_ALL	321
T_NUM_TAP	251
T_NUM_BRK	22
T_NUM_HLD	20
T_NUM_SLD	28
T_NUM_ALL	321
T_JUDGE_TAP	273
T_JUDGE_HLD	80
T_JUDGE_SLD	28
T_JUDGE_ALL	381
TTM_EACHPAIRS	87
TTM_SCR_TAP	125500
TTM_SCR_BRK	57200
TTM_SCR_HLD	20000
TTM_SCR_SLD	42000
TTM_SCR_ALL	244700
TTM_SCR_S	235250
TTM_SCR_SS	242500
TTM_RAT_ACV	10090

