VERSION	0.00.00	1.03.00
FES_MODE	0
BPM_DEF	180.000	180.000	180.000	180.000
MET_DEF	4	4
RESOLUTION	384
CLK_DEF	384
COMPATIBLE_CODE	MA2

BPM	0	0	180.000
MET	0	0	4	4

BRK	9	0	0
TAP	10	0	0
TAP	10	192	0
TAP	11	0	0
TAP	11	192	0
TAP	12	0	7
TAP	12	192	7
TAP	13	0	7
TAP	13	192	6
TAP	13	192	7
TAP	14	0	6
TAP	14	192	6
TAP	15	0	6
TAP	15	192	6
TAP	16	0	5
TAP	16	192	5
TAP	17	0	5
TAP	17	192	4
TAP	17	192	5
TAP	18	0	4
TAP	18	192	4
TAP	19	0	3
TAP	19	192	3
HLD	20	0	4	384
TAP	22	0	2
TAP	22	192	2
TAP	23	0	3
TAP	23	192	3
HLD	24	0	2	384
TAP	26	0	4
TAP	26	192	4
TAP	27	0	5
TAP	27	192	5
HLD	28	0	4	384
TAP	30	0	5
TAP	30	192	4
TAP	31	0	3
TAP	31	192	2
HLD	32	0	1	384
STR	34	0	1
SI_	34	0	1	96	288	5
STR	36	0	6
SI_	36	0	6	96	288	2
STR	38	0	0
SI_	38	0	0	96	288	4
STR	40	0	7
SI_	40	0	7	96	288	3
BRK	42	0	0
TAP	43	0	0
TAP	43	96	0
TAP	43	192	0
TAP	44	0	1
TAP	44	96	1
TAP	44	192	1
TAP	45	0	2
TAP	45	96	2
TAP	45	192	2
TAP	46	0	3
TAP	46	0	4
TAP	47	0	4
TAP	47	96	4
TAP	47	192	4
TAP	48	0	5
TAP	48	96	5
TAP	48	192	5
TAP	49	0	6
TAP	49	96	6
TAP	49	192	6
TAP	50	0	0
TAP	50	0	7
TAP	50	192	0
TAP	50	192	7
TAP	51	0	7
TAP	51	96	7
TAP	51	192	7
TAP	52	0	6
TAP	52	96	6
TAP	52	192	6
TAP	53	0	5
TAP	53	96	5
TAP	53	192	5
TAP	54	0	3
TAP	54	0	4
HLD	55	0	2	192
HLD	56	0	1	192
TAP	57	0	0
TAP	57	96	0
TAP	57	192	0
TAP	58	0	7
TAP	58	96	7
TAP	58	192	7
TAP	59	0	0
TAP	59	0	7
TAP	59	192	0
TAP	59	192	7
TAP	60	0	6
TAP	60	192	0
TAP	60	192	7
TAP	61	0	0
TAP	61	0	7
TAP	61	192	0
TAP	61	192	7
TAP	62	0	1
TAP	62	192	0
TAP	62	192	7
TAP	63	0	6
TAP	63	0	7
TAP	63	192	6
TAP	63	192	7
TAP	64	0	5
TAP	64	192	6
TAP	64	192	7
TAP	65	0	0
TAP	65	0	1
TAP	65	192	0
TAP	65	192	1
TAP	66	0	0
TAP	66	96	7
TAP	66	192	0
TAP	67	0	6
TAP	67	0	7
TAP	67	192	0
TAP	67	192	6
TAP	68	0	1
TAP	68	192	0
TAP	68	192	7
TAP	69	0	0
TAP	69	0	1
TAP	69	192	1
TAP	69	192	7
TAP	70	0	6
TAP	70	192	0
TAP	70	192	7
TAP	71	0	6
TAP	71	0	7
TAP	71	192	0
TAP	71	192	1
TAP	72	0	2
TAP	72	192	0
TAP	72	192	7
TAP	73	0	0
TAP	73	0	1
TAP	73	192	6
TAP	73	192	7
TAP	74	0	5
TAP	74	96	4
TAP	74	192	5
BRK	75	0	3
BRK	75	0	4

T_REC_TAP	131
T_REC_BRK	4
T_REC_XTP	0
T_REC_HLD	6
T_REC_XHO	0
T_REC_STR	4
T_REC_BST	0
T_REC_XST	0
T_REC_TTP	0
T_REC_THO	0
T_REC_SLD	4
T_REC_ALL	149
T_NUM_TAP	135
T_NUM_BRK	4
T_NUM_HLD	6
T_NUM_SLD	4
T_NUM_ALL	149
T_JUDGE_TAP	139
T_JUDGE_HLD	40
T_JUDGE_SLD	4
T_JUDGE_ALL	183
TTM_EACHPAIRS	29
TTM_SCR_TAP	67500
TTM_SCR_BRK	10400
TTM_SCR_HLD	6000
TTM_SCR_SLD	6000
TTM_SCR_ALL	89900
TTM_SCR_S	86850
TTM_SCR_SS	89500
TTM_RAT_ACV	10044

