VERSION	0.00.00	1.03.00
FES_MODE	0
BPM_DEF	160.000	160.000	160.000	160.000
MET_DEF	4	4
RESOLUTION	384
CLK_DEF	384
COMPATIBLE_CODE	MA2

BPM	0	0	160.000
MET	0	0	4	4

TAP	1	0	4
TAP	1	192	4
TAP	2	0	4
TAP	2	96	4
TAP	2	192	4
STR	3	0	0
SLR	3	0	0	96	96	4
TAP	3	96	4
TAP	3	192	6
TAP	3	288	0
STR	4	0	7
SLL	4	0	7	96	96	3
TAP	4	96	3
TAP	4	192	1
TAP	4	288	7
STR	5	0	2
SLL	5	0	2	96	96	6
TAP	5	96	6
TAP	5	192	4
TAP	5	288	2
TAP	6	0	1
TAP	6	0	3
TAP	6	96	4
TAP	6	96	6
TAP	6	192	2
TAP	6	192	5
TAP	6	240	3
TAP	6	264	4
TAP	6	288	3
TAP	6	312	4
TAP	6	336	3
STR	7	0	1
SI_	7	0	1	96	48	4
STR	7	96	6
SI_	7	96	6	96	48	3
STR	7	192	0
SI_	7	192	0	96	48	5
TAP	7	288	7
STR	8	0	6
SI_	8	0	6	96	48	3
STR	8	96	1
SI_	8	96	1	96	48	4
STR	8	192	7
SI_	8	192	7	96	48	2
TAP	8	288	0
STR	9	0	1
SI_	9	0	1	96	48	4
STR	9	96	5
SI_	9	96	5	96	48	0
STR	9	192	2
SI_	9	192	2	96	48	7
TAP	9	288	4
TAP	10	0	5
TAP	10	48	3
TAP	10	48	4
TAP	10	96	2
TAP	10	144	3
TAP	10	144	4
TAP	10	192	2
TAP	10	192	5
TAP	10	240	3
TAP	10	264	4
TAP	10	288	3
TAP	10	312	4
TAP	10	336	3
TAP	10	360	4
TAP	11	0	1
TAP	11	48	2
TAP	11	96	3
TAP	11	144	2
TAP	11	144	4
TAP	11	192	3
TAP	11	240	4
TAP	11	288	3
TAP	11	288	5
TAP	11	336	4
TAP	12	0	5
TAP	12	48	4
TAP	12	48	6
TAP	12	96	5
TAP	12	144	6
STR	12	192	1
SI_	12	192	1	96	48	5
TAP	12	192	7
TAP	12	288	1
TAP	12	288	6
TAP	13	0	6
TAP	13	48	5
TAP	13	96	4
TAP	13	144	3
TAP	13	144	5
TAP	13	192	4
TAP	13	240	3
TAP	13	288	2
TAP	13	288	4
TAP	13	336	3
TAP	14	0	2
TAP	14	48	1
TAP	14	48	3
TAP	14	96	2
TAP	14	144	1
TAP	14	192	0
STR	14	192	6
SI_	14	192	6	96	48	2
TAP	14	288	1
TAP	14	288	6
TAP	15	0	1
TAP	15	0	3
TAP	15	48	2
TAP	15	96	4
TAP	15	144	3
TAP	15	144	5
TAP	15	192	4
TAP	15	240	6
TAP	15	288	5
TAP	15	288	7
TAP	15	336	6
TAP	16	0	0
TAP	16	48	2
TAP	16	48	6
TAP	16	96	1
TAP	16	96	5
TAP	16	144	0
TAP	16	144	4
STR	16	192	3
SI_	16	192	3	96	48	7
TAP	16	192	7
TAP	16	288	2
TAP	16	288	3
TAP	17	0	4
TAP	17	0	6
TAP	17	48	5
TAP	17	96	3
TAP	17	144	2
TAP	17	144	4
TAP	17	192	3
TAP	17	240	1
TAP	17	288	0
TAP	17	288	2
TAP	17	336	1
TAP	18	0	7
TAP	18	48	1
TAP	18	48	5
TAP	18	96	2
TAP	18	96	6
TAP	18	144	3
TAP	18	144	7
TAP	18	192	0
STR	18	192	4
SI_	18	192	4	96	48	0
TAP	18	288	4
TAP	18	288	5
TAP	19	0	1
TAP	19	0	3
TAP	19	48	2
TAP	19	48	4
TAP	19	96	3
TAP	19	96	5
TAP	19	144	4
TAP	19	144	6
TAP	19	192	5
TAP	19	192	7
TAP	19	240	4
TAP	19	240	6
TAP	19	288	3
TAP	19	288	5
TAP	19	336	2
TAP	19	336	4
STR	20	0	1
SI_	20	0	1	96	48	4
TAP	20	0	3
TAP	20	96	1
TAP	20	96	7
TAP	20	192	5
TAP	20	240	4
TAP	20	288	3
TAP	20	288	6
TAP	21	0	4
STR	21	0	6
SI_	21	0	6	96	48	3
TAP	21	96	0
TAP	21	96	6
TAP	21	192	2
TAP	21	240	3
TAP	21	288	1
TAP	21	288	4
TAP	22	0	0
STR	22	0	2
SI_	22	0	2	96	48	7
TAP	22	96	2
TAP	22	96	4
TAP	22	192	6
TAP	22	240	7
TAP	22	288	0
TAP	22	288	5
HLD	23	0	2	48
HLD	23	48	1	48
HLD	23	96	0	48
HLD	23	144	7	96
TAP	23	240	6
TAP	23	288	6
HLD	24	0	5	48
HLD	24	48	6	48
HLD	24	96	7	48
HLD	24	144	0	96
TAP	24	240	1
TAP	24	288	1
HLD	25	0	2	48
HLD	25	48	4	48
HLD	25	96	6	48
HLD	25	144	0	96
TAP	25	240	2
TAP	25	288	2
HLD	26	0	5	48
HLD	26	48	3	48
HLD	26	96	1	48
HLD	26	144	7	96
TAP	26	240	5
TAP	26	288	5
TAP	27	0	4
TAP	27	0	6
TAP	27	48	3
TAP	27	48	5
TAP	27	96	2
TAP	27	96	4
TAP	27	144	1
TAP	27	144	3
TAP	27	192	0
TAP	27	192	2
TAP	27	240	1
TAP	27	240	3
TAP	27	288	2
TAP	27	288	4
TAP	27	336	3
TAP	27	336	5
TAP	28	0	4
STR	28	0	6
SI_	28	0	6	96	48	3
TAP	28	96	0
TAP	28	96	6
TAP	28	192	2
TAP	28	240	3
TAP	28	288	1
TAP	28	288	4
STR	29	0	1
SI_	29	0	1	96	48	4
TAP	29	0	3
TAP	29	96	1
TAP	29	96	7
TAP	29	192	5
TAP	29	240	4
TAP	29	288	3
TAP	29	288	6
STR	30	0	5
SI_	30	0	5	96	48	0
TAP	30	0	7
TAP	30	96	3
TAP	30	96	5
TAP	30	192	1
TAP	30	240	0
TAP	30	288	2
TAP	30	288	7
TAP	31	0	6
TAP	31	48	5
TAP	31	48	7
TAP	31	96	0
TAP	31	96	4
TAP	31	144	1
TAP	31	144	3
TAP	31	240	2
TAP	31	240	6
TAP	31	288	0
TAP	31	288	4
TAP	32	0	1
TAP	32	48	0
TAP	32	48	2
TAP	32	96	3
TAP	32	96	7
TAP	32	144	4
TAP	32	144	6
TAP	32	240	1
TAP	32	240	5
TAP	32	288	3
TAP	32	288	7
TAP	33	0	4
TAP	33	48	3
TAP	33	48	5
TAP	33	96	2
TAP	33	96	6
TAP	33	144	1
TAP	33	144	7
TAP	33	240	0
TAP	33	240	4
TAP	33	288	2
TAP	33	288	6
TAP	34	0	3
TAP	34	48	2
TAP	34	48	4
TAP	34	96	1
TAP	34	96	5
TAP	34	144	0
TAP	34	144	6
BRK	34	240	3
BRK	34	240	7
BRK	34	288	1
BRK	34	288	5
HLD	35	0	6	96
TAP	35	48	4
TAP	35	96	4
HLD	35	192	1	96
TAP	35	240	3
TAP	35	288	3
TAP	36	0	4
TAP	36	0	6
TAP	36	72	1
TAP	36	72	3
TAP	36	144	2
TAP	36	144	5
STR	36	192	0
SI_	36	192	0	96	48	3
STR	36	192	7
SI_	36	192	7	96	48	4
TAP	36	288	0
TAP	36	288	7
HLD	37	0	2	96
TAP	37	48	3
TAP	37	96	1
HLD	37	192	5	96
TAP	37	240	4
TAP	37	288	6
TAP	38	0	0
TAP	38	0	2
TAP	38	72	5
TAP	38	72	7
TAP	38	144	1
TAP	38	144	6
STR	38	192	3
SI_	38	192	3	96	48	7
STR	38	192	4
SI_	38	192	4	96	48	0
TAP	38	288	3
TAP	38	288	4
HLD	39	0	1	144
TAP	39	48	2
TAP	39	96	3
TAP	39	144	4
HLD	39	192	6	144
TAP	39	240	5
TAP	39	288	4
TAP	39	336	3
TAP	40	0	1
TAP	40	0	7
TAP	40	72	3
TAP	40	72	5
TAP	40	144	0
TAP	40	144	4
STR	40	192	2
SI_	40	192	2	96	48	7
STR	40	192	6
SI_	40	192	6	96	48	3
TAP	40	288	2
TAP	40	288	6
HLD	41	0	0	144
TAP	41	48	1
TAP	41	96	3
TAP	41	144	5
HLD	41	192	7	144
TAP	41	240	6
TAP	41	288	4
TAP	41	336	2
STR	42	0	1
SI_	42	0	1	96	48	4
STR	42	0	5
SI_	42	0	5	96	48	0
TAP	42	96	1
TAP	42	96	5
STR	42	192	7
SI_	42	192	7	96	48	3
STR	42	288	3
SI_	42	288	3	96	48	7
BST	43	0	7
SCL	43	0	7	96	48	5
SCR	43	0	7	96	48	2
STR	43	192	1
SI_	43	192	1	96	72	4
TAP	43	264	0
TAP	43	336	7
STR	44	0	6
SI_	44	0	6	96	72	3
TAP	44	72	7
TAP	44	144	0
STR	44	192	1
SCR	44	192	1	96	48	4
TAP	44	288	1
STR	45	0	5
SI_	45	0	5	96	72	0
TAP	45	72	4
TAP	45	144	3
STR	45	192	3
SI_	45	192	3	96	48	0
TAP	45	288	7
TAP	45	336	7
STR	46	0	2
SI_	46	0	2	96	72	7
TAP	46	72	3
TAP	46	144	4
STR	46	192	4
SI_	46	192	4	96	48	7
TAP	46	264	0
TAP	46	336	0
HLD	47	0	2	72
HLD	47	72	3	72
HLD	47	144	4	48
TAP	47	192	5
TAP	47	288	0
TAP	47	288	7
HLD	48	0	5	72
HLD	48	72	4	72
HLD	48	144	3	48
TAP	48	192	2
TAP	48	288	0
TAP	48	288	7
STR	49	0	1
SCR	49	0	1	96	72	4
STR	49	72	4
SI_	49	72	4	96	48	0
TAP	49	144	7
STR	49	192	6
SCL	49	192	6	96	72	3
STR	49	264	3
SI_	49	264	3	96	48	7
TAP	49	336	0
STR	50	0	1
SCR	50	0	1	96	72	4
STR	50	72	4
SI_	50	72	4	96	48	0
TAP	50	144	7
TAP	50	192	6
TAP	50	240	5
STR	50	288	4
SI_	50	288	4	96	96	0
BST	51	0	0
SCL	51	0	0	96	48	5
SCR	51	0	0	96	48	2
STR	51	192	0
SI_	51	192	0	96	72	4
STR	51	264	4
SXR	51	264	4	96	48	2
TAP	51	336	7
STR	52	0	7
SI_	52	0	7	96	72	3
STR	52	72	3
SXL	52	72	3	96	48	5
TAP	52	144	0
STR	52	192	0
SI_	52	192	0	96	48	3
TAP	52	288	0
STR	53	0	5
SI_	53	0	5	96	72	0
STR	53	72	0
SUL	53	72	0	96	96	3
TAP	53	144	2
TAP	53	192	2
TAP	53	288	0
TAP	53	336	0
STR	54	0	2
SI_	54	0	2	96	72	7
STR	54	72	7
SUR	54	72	7	96	96	4
TAP	54	144	5
TAP	54	192	5
TAP	54	264	7
TAP	54	336	7
HLD	55	0	6	72
HLD	55	72	4	72
HLD	55	144	1	48
STR	55	192	0
SF_	55	192	0	96	48	4
HLD	56	0	1	72
HLD	56	72	3	72
HLD	56	144	6	48
STR	56	192	7
SF_	56	192	7	96	48	3
STR	57	0	1
SI_	57	0	1	96	72	4
STR	57	72	4
SUR	57	72	4	96	48	2
TAP	57	144	7
STR	57	192	6
SI_	57	192	6	96	72	3
STR	57	264	3
SUL	57	264	3	96	48	5
TAP	57	336	1
STR	58	0	0
SI_	58	0	0	96	48	4
TAP	58	96	0
TAP	58	144	7
TAP	58	192	0
TAP	58	192	6
TAP	58	240	1
TAP	58	240	5
TAP	58	288	2
TAP	58	288	4
STR	59	0	1
SI_	59	0	1	96	48	3
STR	59	96	7
SI_	59	96	7	96	48	1
STR	59	192	5
SI_	59	192	5	96	48	7
STR	59	288	3
SI_	59	288	3	96	48	5
STR	60	0	1
SI_	60	0	1	96	48	3
STR	60	96	7
SI_	60	96	7	96	48	1
STR	60	192	5
SI_	60	192	5	96	48	3
SI_	60	192	5	96	48	7
STR	61	0	6
SI_	61	0	6	96	48	4
STR	61	96	0
SI_	61	96	0	96	48	6
STR	61	192	2
SI_	61	192	2	96	48	0
STR	61	288	4
SI_	61	288	4	96	48	2
STR	62	0	6
SI_	62	0	6	96	48	4
STR	62	96	0
SI_	62	96	0	96	48	6
STR	62	192	2
SI_	62	192	2	96	48	0
SI_	62	192	2	96	48	4
TAP	63	0	1
TAP	63	0	5
TAP	63	48	2
TAP	63	48	6
STR	63	96	3
SCL	63	96	3	96	48	0
STR	63	96	7
SCL	63	96	7	96	48	4
STR	63	192	7
SI_	63	192	7	96	48	3
TAP	64	0	2
TAP	64	0	6
TAP	64	48	1
TAP	64	48	5
STR	64	96	0
SCR	64	96	0	96	48	3
STR	64	96	4
SCR	64	96	4	96	48	7
STR	64	192	0
SI_	64	192	0	96	48	4
TAP	65	0	1
TAP	65	0	5
TAP	65	48	2
TAP	65	48	6
STR	65	96	3
SCL	65	96	3	96	48	0
STR	65	96	7
SCL	65	96	7	96	48	4
STR	65	192	7
SF_	65	192	7	96	48	3
TAP	66	0	2
TAP	66	0	5
TAP	66	48	3
TAP	66	72	4
TAP	66	96	2
TAP	66	120	4
TAP	66	144	3
TAP	66	168	5
TAP	66	192	3
BRK	66	288	2
BRK	66	288	7
BRK	66	336	0
BRK	66	336	5

T_REC_TAP	354
T_REC_BRK	8
T_REC_XTP	0
T_REC_HLD	36
T_REC_XHO	0
T_REC_STR	85
T_REC_BST	2
T_REC_XST	0
T_REC_TTP	0
T_REC_THO	0
T_REC_SLD	91
T_REC_ALL	576
T_NUM_TAP	439
T_NUM_BRK	10
T_NUM_HLD	36
T_NUM_SLD	91
T_NUM_ALL	576
T_JUDGE_TAP	449
T_JUDGE_HLD	60
T_JUDGE_SLD	91
T_JUDGE_ALL	600
TTM_EACHPAIRS	120
TTM_SCR_TAP	219500
TTM_SCR_BRK	26000
TTM_SCR_HLD	36000
TTM_SCR_SLD	136500
TTM_SCR_ALL	418000
TTM_SCR_S	404500
TTM_SCR_SS	417000
TTM_RAT_ACV	10023

