VERSION	0.00.00	1.03.00
FES_MODE	0
BPM_DEF	160.000	160.000	160.000	160.000
MET_DEF	4	4
RESOLUTION	384
CLK_DEF	384
COMPATIBLE_CODE	MA2

BPM	0	0	160.000
MET	0	0	4	4

TAP	1	0	3
TAP	1	192	3
TAP	2	0	3
TAP	2	96	3
TAP	2	192	3
HLD	3	0	3	96
TAP	3	96	4
HLD	3	192	4	96
TAP	3	288	3
HLD	4	0	3	96
TAP	4	96	4
HLD	4	192	4	96
TAP	4	288	3
HLD	5	0	2	96
TAP	5	96	4
HLD	5	192	5	96
TAP	5	288	3
HLD	6	0	2	96
TAP	6	96	4
TAP	6	192	4
TAP	6	240	3
TAP	6	288	2
TAP	6	288	5
HLD	7	0	2	96
TAP	7	48	3
TAP	7	96	4
HLD	7	192	5	96
TAP	7	240	4
TAP	7	288	3
HLD	8	0	2	96
TAP	8	48	3
TAP	8	96	4
HLD	8	192	5	96
TAP	8	240	4
TAP	8	288	3
HLD	9	0	1	96
TAP	9	48	4
TAP	9	96	5
HLD	9	192	6	96
TAP	9	240	3
TAP	9	288	2
HLD	10	0	1	96
TAP	10	48	4
TAP	10	96	5
TAP	10	192	4
TAP	10	240	3
BRK	10	288	1
BRK	10	288	6
TAP	11	0	0
TAP	11	48	0
TAP	11	144	2
TAP	11	192	2
TAP	11	288	4
TAP	11	336	4
TAP	12	48	6
TAP	12	96	6
STR	12	192	0
SI_	12	192	0	96	48	3
STR	12	192	6
SI_	12	192	6	96	48	3
TAP	13	0	7
TAP	13	48	7
TAP	13	144	5
TAP	13	192	5
TAP	13	288	3
TAP	13	336	3
TAP	14	48	1
TAP	14	96	1
STR	14	192	1
SI_	14	192	1	96	48	4
STR	14	192	7
SI_	14	192	7	96	48	4
TAP	15	0	6
TAP	15	0	7
TAP	15	48	6
TAP	15	48	7
TAP	15	144	0
TAP	15	144	1
TAP	15	192	0
TAP	15	192	1
TAP	15	288	2
TAP	15	288	3
TAP	15	336	2
TAP	15	336	3
TAP	16	48	4
TAP	16	48	5
TAP	16	96	4
TAP	16	96	5
STR	16	192	6
SI_	16	192	6	96	48	3
STR	16	192	7
SI_	16	192	7	96	48	3
TAP	17	0	0
TAP	17	0	1
TAP	17	48	0
TAP	17	48	1
TAP	17	144	6
TAP	17	144	7
TAP	17	192	6
TAP	17	192	7
TAP	17	288	4
TAP	17	288	5
TAP	17	336	4
TAP	17	336	5
TAP	18	48	2
TAP	18	48	3
TAP	18	96	2
TAP	18	96	3
STR	18	192	0
SI_	18	192	0	96	48	4
STR	18	192	1
SI_	18	192	1	96	48	4
TAP	19	0	1
TAP	19	96	0
TAP	19	96	2
TAP	19	192	6
TAP	19	288	5
TAP	19	288	7
STR	20	0	1
SXR	20	0	1	96	192	4
TAP	20	0	7
TAP	21	0	7
TAP	21	96	0
TAP	21	96	6
TAP	21	192	0
TAP	21	288	1
TAP	21	288	7
TAP	22	0	2
TAP	22	48	3
TAP	22	96	2
TAP	22	192	5
TAP	22	240	4
TAP	22	288	5
TAP	23	0	4
TAP	23	48	4
TAP	23	96	5
HLD	23	192	6	96
TAP	23	240	7
TAP	23	288	7
TAP	24	0	3
TAP	24	48	3
TAP	24	96	2
HLD	24	192	1	96
TAP	24	240	0
TAP	24	288	0
TAP	25	0	7
TAP	25	48	7
TAP	25	96	6
HLD	25	192	5	96
TAP	25	240	4
TAP	25	288	4
TAP	26	0	0
TAP	26	48	0
TAP	26	96	1
STR	26	192	2
SCR	26	192	2	96	48	4
TAP	26	240	2
TAP	27	0	6
TAP	27	96	5
TAP	27	96	7
TAP	27	192	1
TAP	27	288	0
TAP	27	288	2
TAP	28	0	0
STR	28	0	6
SXL	28	0	6	96	192	3
TAP	29	0	0
TAP	29	96	1
TAP	29	96	7
TAP	29	192	7
TAP	29	288	0
TAP	29	288	6
TAP	30	0	5
TAP	30	48	4
TAP	30	96	5
TAP	30	192	2
TAP	30	240	3
TAP	30	288	2
TAP	31	0	3
TAP	31	48	3
TAP	31	96	2
HLD	31	192	1	96
TAP	31	240	0
TAP	31	288	0
TAP	32	0	4
TAP	32	48	4
TAP	32	96	5
HLD	32	192	6	96
TAP	32	240	7
TAP	32	288	7
TAP	33	0	0
TAP	33	48	0
TAP	33	96	1
HLD	33	192	2	96
TAP	33	240	3
TAP	33	288	3
TAP	34	0	7
TAP	34	48	7
TAP	34	96	6
STR	34	192	5
SCL	34	192	5	96	48	3
TAP	34	240	5
HLD	35	0	1	96
TAP	35	96	0
HLD	35	192	6	96
TAP	35	288	7
HLD	36	0	2	96
HLD	36	96	3	96
TAP	36	192	4
TAP	36	288	2
TAP	36	288	5
HLD	37	0	6	96
TAP	37	96	7
HLD	37	192	1	96
TAP	37	288	0
HLD	38	0	5	96
HLD	38	96	4	96
TAP	38	192	3
TAP	38	288	2
TAP	38	288	5
HLD	39	0	0	96
HLD	39	96	7	96
HLD	39	192	6	96
TAP	39	288	5
TAP	40	0	4
TAP	40	0	5
TAP	40	96	2
TAP	40	96	3
STR	40	192	0
SCL	40	192	0	96	48	5
STR	40	192	1
SCR	40	192	1	96	48	4
HLD	41	0	7	96
HLD	41	96	0	96
HLD	41	192	1	96
TAP	41	288	2
TAP	42	0	2
TAP	42	0	3
TAP	42	96	4
TAP	42	96	5
BST	42	192	6
SCL	42	192	6	96	48	3
BST	42	192	7
SCR	42	192	7	96	48	2
TAP	43	0	1
TAP	43	48	0
TAP	43	96	1
TAP	43	192	6
TAP	43	240	7
TAP	43	288	6
TAP	44	0	1
TAP	44	48	0
TAP	44	96	2
TAP	44	144	7
TAP	44	192	3
TAP	44	288	1
TAP	44	288	6
TAP	45	0	6
TAP	45	48	7
TAP	45	96	6
TAP	45	192	1
TAP	45	240	0
TAP	45	288	1
TAP	46	0	6
TAP	46	48	7
TAP	46	96	5
TAP	46	144	0
TAP	46	192	4
TAP	46	288	1
TAP	46	288	6
HLD	47	0	1	72
HLD	47	72	2	72
TAP	47	144	3
STR	47	192	3
SI_	47	192	3	96	48	7
HLD	48	0	6	72
HLD	48	72	5	72
TAP	48	144	4
STR	48	192	4
SI_	48	192	4	96	48	0
HLD	49	0	1	72
HLD	49	72	3	72
TAP	49	144	4
HLD	49	192	6	72
HLD	49	264	4	72
TAP	49	336	3
HLD	50	0	0	72
HLD	50	72	2	72
TAP	50	144	4
TAP	50	192	5
TAP	50	240	4
BRK	50	288	3
BRK	50	288	5
TAP	51	0	6
TAP	51	48	7
TAP	51	96	0
TAP	51	96	5
TAP	51	192	1
TAP	51	240	0
TAP	51	288	2
TAP	51	288	7
TAP	52	0	6
TAP	52	48	7
TAP	52	96	5
TAP	52	144	0
STR	52	192	4
SCR	52	192	4	96	48	7
TAP	52	288	1
TAP	53	0	1
TAP	53	48	0
TAP	53	96	2
TAP	53	96	7
TAP	53	192	6
TAP	53	240	7
TAP	53	288	0
TAP	53	288	5
TAP	54	0	1
TAP	54	48	0
TAP	54	96	2
TAP	54	144	7
STR	54	192	3
SCL	54	192	3	96	48	0
TAP	54	288	6
HLD	55	0	6	72
HLD	55	72	0	72
TAP	55	144	2
STR	55	192	2
SI_	55	192	2	96	48	6
HLD	56	0	1	72
HLD	56	72	7	72
TAP	56	144	5
STR	56	192	5
SI_	56	192	5	96	48	1
HLD	57	0	5	72
HLD	57	72	7	72
TAP	57	144	0
HLD	57	192	2	72
HLD	57	264	0	72
TAP	57	336	7
HLD	58	0	4	72
HLD	58	72	6	72
TAP	58	144	7
TAP	58	192	0
TAP	58	240	7
BRK	58	288	1
BRK	58	288	6
TAP	59	0	2
TAP	59	48	3
TAP	59	96	1
TAP	59	96	4
TAP	59	192	5
TAP	59	240	4
TAP	59	288	3
TAP	59	288	6
TAP	60	0	2
TAP	60	48	3
TAP	60	96	1
TAP	60	96	4
TAP	60	192	5
TAP	60	240	4
TAP	60	288	3
TAP	60	288	6
TAP	61	0	2
TAP	61	48	4
TAP	61	96	1
TAP	61	96	5
TAP	61	192	5
TAP	61	240	3
TAP	61	288	2
TAP	61	288	6
TAP	62	0	2
TAP	62	48	4
TAP	62	96	1
TAP	62	96	5
TAP	62	192	3
TAP	62	192	4
BRK	62	288	2
BRK	62	288	5
TAP	63	0	2
TAP	63	48	3
TAP	63	96	1
TAP	63	144	1
TAP	63	192	5
TAP	63	240	4
TAP	63	288	6
TAP	63	336	6
TAP	64	0	2
TAP	64	48	3
TAP	64	96	1
TAP	64	144	1
TAP	64	192	5
TAP	64	240	4
TAP	64	288	6
TAP	64	336	6
TAP	65	0	2
TAP	65	48	4
TAP	65	96	0
TAP	65	144	0
TAP	65	192	5
TAP	65	240	3
TAP	65	288	7
TAP	65	336	7
TAP	66	0	2
TAP	66	48	4
TAP	66	96	0
TAP	66	144	0
TAP	66	192	2
TAP	66	192	5
BRK	66	288	0
BRK	66	288	7
BST	66	336	1
SCL	66	336	1	96	720	4
BST	66	336	6
SCR	66	336	6	96	720	3

T_REC_TAP	302
T_REC_BRK	10
T_REC_XTP	0
T_REC_HLD	54
T_REC_XHO	0
T_REC_STR	20
T_REC_BST	4
T_REC_XST	0
T_REC_TTP	0
T_REC_THO	0
T_REC_SLD	24
T_REC_ALL	414
T_NUM_TAP	322
T_NUM_BRK	14
T_NUM_HLD	54
T_NUM_SLD	24
T_NUM_ALL	414
T_JUDGE_TAP	336
T_JUDGE_HLD	108
T_JUDGE_SLD	24
T_JUDGE_ALL	468
TTM_EACHPAIRS	60
TTM_SCR_TAP	161000
TTM_SCR_BRK	36400
TTM_SCR_HLD	54000
TTM_SCR_SLD	36000
TTM_SCR_ALL	287400
TTM_SCR_S	277450
TTM_SCR_SS	286000
TTM_RAT_ACV	10048

