VERSION	0.00.00	1.03.00
FES_MODE	0
BPM_DEF	160.000	160.000	160.000	160.000
MET_DEF	4	4
RESOLUTION	384
CLK_DEF	384
COMPATIBLE_CODE	MA2

BPM	0	0	160.000
MET	0	0	4	4

TAP	3	0	0
TAP	3	192	1
TAP	4	0	7
TAP	4	192	6
TAP	5	0	2
TAP	5	192	3
TAP	6	0	5
TAP	6	192	4
TAP	7	0	0
TAP	7	96	7
TAP	7	192	0
TAP	7	288	7
TAP	8	0	1
TAP	8	96	0
TAP	8	192	1
TAP	8	288	0
TAP	9	0	6
TAP	9	96	7
TAP	9	192	6
TAP	9	288	7
TAP	10	0	0
TAP	10	96	7
TAP	10	192	0
BRK	10	288	1
BRK	10	288	6
TAP	11	0	0
TAP	11	96	0
TAP	11	192	1
TAP	11	288	1
TAP	12	0	2
TAP	12	96	3
HLD	12	192	2	96
HLD	12	192	3	96
TAP	13	0	7
TAP	13	96	7
TAP	13	192	6
TAP	13	288	6
TAP	14	0	5
TAP	14	96	4
HLD	14	192	4	96
HLD	14	192	5	96
TAP	15	0	3
TAP	15	96	3
TAP	15	192	2
TAP	15	288	2
TAP	16	0	1
TAP	16	96	0
HLD	16	192	0	96
HLD	16	192	1	96
TAP	17	0	4
TAP	17	96	4
TAP	17	192	5
TAP	17	288	5
TAP	18	0	6
TAP	18	96	7
HLD	18	192	6	96
HLD	18	192	7	96
TAP	19	0	2
TAP	19	96	2
TAP	19	192	3
TAP	19	288	3
HLD	20	0	5	192
TAP	20	192	4
TAP	21	0	5
TAP	21	96	5
TAP	21	192	4
TAP	21	288	4
HLD	22	0	2	192
TAP	22	192	3
TAP	23	0	1
TAP	23	96	0
HLD	23	192	0	96
HLD	23	192	1	96
TAP	24	0	6
TAP	24	96	7
HLD	24	192	6	96
HLD	24	192	7	96
TAP	25	0	0
TAP	25	96	7
HLD	25	192	2	96
HLD	25	192	5	96
TAP	26	0	3
TAP	26	96	4
HLD	26	192	1	96
HLD	26	192	6	96
TAP	27	0	0
TAP	27	96	2
TAP	27	192	4
STR	27	288	6
SCL	27	288	6	96	192	2
TAP	29	0	7
TAP	29	96	5
TAP	29	192	3
STR	29	288	1
SCR	29	288	1	96	192	5
TAP	31	0	1
TAP	31	96	0
HLD	31	192	2	96
HLD	31	192	7	96
TAP	32	0	6
TAP	32	96	7
HLD	32	192	0	96
HLD	32	192	5	96
TAP	33	0	2
TAP	33	96	3
HLD	33	192	1	96
HLD	33	192	4	96
TAP	34	0	5
TAP	34	96	4
BRK	34	192	3
BRK	34	192	6
TAP	35	0	0
TAP	35	48	0
TAP	35	96	0
TAP	35	192	7
TAP	35	240	7
TAP	35	288	7
TAP	36	0	1
TAP	36	0	6
TAP	36	96	3
TAP	36	96	4
HLD	36	192	2	96
HLD	36	192	5	96
TAP	37	0	3
TAP	37	48	3
TAP	37	96	3
TAP	37	192	4
TAP	37	240	4
TAP	37	288	4
TAP	38	0	2
TAP	38	0	5
TAP	38	96	0
TAP	38	96	7
HLD	38	192	1	96
HLD	38	192	6	96
HLD	39	0	2	96
TAP	39	96	3
HLD	39	192	5	96
TAP	39	288	4
TAP	40	0	3
TAP	40	0	4
TAP	40	96	0
TAP	40	96	7
HLD	40	192	2	96
HLD	40	192	5	96
HLD	41	0	5	96
TAP	41	96	4
HLD	41	192	2	96
TAP	41	288	3
HLD	42	0	3	96
HLD	42	0	4	96
BRK	42	192	1
BRK	42	192	6
TAP	43	0	2
TAP	43	96	3
TAP	43	192	2
TAP	43	240	3
TAP	43	288	2
TAP	44	0	5
TAP	44	96	4
TAP	44	192	5
TAP	44	240	4
TAP	44	288	5
TAP	45	0	3
TAP	45	96	4
TAP	45	192	3
TAP	45	240	4
TAP	45	288	3
TAP	46	0	7
TAP	46	96	0
TAP	46	192	7
TAP	46	240	0
TAP	46	288	7
TAP	47	0	0
TAP	47	0	1
TAP	47	96	2
TAP	47	96	7
HLD	47	192	3	96
HLD	47	192	6	96
TAP	48	0	6
TAP	48	0	7
TAP	48	96	0
TAP	48	96	5
HLD	48	192	1	96
HLD	48	192	4	96
TAP	49	0	2
TAP	49	0	3
TAP	49	96	1
TAP	49	96	4
TAP	49	192	0
TAP	49	192	5
TAP	49	288	6
TAP	49	288	7
TAP	50	0	0
TAP	50	0	1
TAP	50	96	2
TAP	50	96	7
TAP	50	192	3
TAP	50	192	6
TAP	50	288	4
TAP	50	288	5
BRK	51	0	0
BRK	51	0	7
TAP	51	192	0
TAP	51	288	6
TAP	52	0	7
STR	52	96	1
SCL	52	96	1	96	96	6
TAP	53	0	4
TAP	53	96	2
TAP	53	192	5
TAP	53	288	3
TAP	54	0	2
TAP	54	0	5
STR	54	96	0
SCR	54	96	0	96	96	3
STR	54	96	7
SCL	54	96	7	96	96	4
TAP	55	0	3
TAP	55	0	4
TAP	55	96	0
TAP	55	96	1
HLD	55	192	6	96
HLD	55	192	7	96
TAP	56	0	3
TAP	56	0	4
TAP	56	96	6
TAP	56	96	7
HLD	56	192	0	96
HLD	56	192	1	96
TAP	57	0	5
TAP	57	96	4
TAP	57	192	3
TAP	57	288	2
TAP	58	0	1
TAP	58	0	6
STR	58	96	3
SCL	58	96	3	96	96	0
STR	58	96	4
SCR	58	96	4	96	96	7
TAP	59	0	0
TAP	59	96	0
TAP	59	192	1
TAP	59	288	1
TAP	60	0	7
TAP	60	96	7
TAP	60	192	6
TAP	60	288	6
TAP	61	0	2
TAP	61	96	2
TAP	61	192	3
TAP	61	288	3
TAP	62	0	5
TAP	62	96	5
TAP	62	192	4
TAP	62	288	4
HLD	63	0	0	96
TAP	63	96	7
TAP	63	192	1
TAP	63	192	6
TAP	63	288	0
TAP	63	288	7
HLD	64	0	2	96
TAP	64	96	3
TAP	64	192	1
TAP	64	192	4
TAP	64	288	2
TAP	64	288	3
HLD	65	0	5	96
TAP	65	96	4
TAP	65	192	3
TAP	65	192	6
TAP	65	288	4
TAP	65	288	5
TAP	66	0	0
TAP	66	96	7
TAP	66	192	2
TAP	66	192	5
TAP	66	288	0
TAP	66	288	7
BRK	66	336	0
BRK	66	336	7

T_REC_TAP	211
T_REC_BRK	10
T_REC_XTP	0
T_REC_HLD	47
T_REC_XHO	0
T_REC_STR	7
T_REC_BST	0
T_REC_XST	0
T_REC_TTP	0
T_REC_THO	0
T_REC_SLD	7
T_REC_ALL	282
T_NUM_TAP	218
T_NUM_BRK	10
T_NUM_HLD	47
T_NUM_SLD	7
T_NUM_ALL	282
T_JUDGE_TAP	228
T_JUDGE_HLD	98
T_JUDGE_SLD	7
T_JUDGE_ALL	333
TTM_EACHPAIRS	58
TTM_SCR_TAP	109000
TTM_SCR_BRK	26000
TTM_SCR_HLD	47000
TTM_SCR_SLD	10500
TTM_SCR_ALL	192500
TTM_SCR_S	185800
TTM_SCR_SS	191500
TTM_RAT_ACV	10052

