VERSION	0.00.00	1.03.00
FES_MODE	0
BPM_DEF	160.000	160.000	160.000	160.000
MET_DEF	4	4
RESOLUTION	384
CLK_DEF	384
COMPATIBLE_CODE	MA2

BPM	0	0	160.000
MET	0	0	4	4

TAP	3	0	3
TAP	4	0	3
TAP	5	0	4
TAP	6	0	4
TAP	7	0	3
TAP	7	192	3
TAP	8	0	2
TAP	8	192	2
TAP	9	0	1
TAP	9	192	1
TAP	10	0	0
BRK	10	192	0
STR	11	0	7
SI_	11	0	7	96	288	3
STR	13	0	0
SI_	13	0	0	96	288	4
STR	15	0	6
SI_	15	0	6	96	288	3
STR	17	0	1
SI_	17	0	1	96	288	4
TAP	19	0	7
TAP	19	192	7
TAP	20	0	6
TAP	20	192	6
TAP	21	0	5
TAP	21	192	5
TAP	22	0	4
TAP	22	0	5
TAP	22	192	4
TAP	22	192	5
TAP	23	0	3
TAP	23	192	3
TAP	24	0	2
TAP	24	192	2
TAP	25	0	1
TAP	25	192	1
TAP	26	0	0
TAP	26	0	1
TAP	26	192	0
TAP	26	192	1
TAP	27	0	0
TAP	27	192	0
TAP	28	0	1
TAP	28	192	1
TAP	29	0	2
TAP	29	192	2
TAP	30	0	2
TAP	30	0	3
TAP	30	192	2
TAP	30	192	3
TAP	31	0	4
TAP	31	192	4
TAP	32	0	5
TAP	32	192	5
TAP	33	0	6
TAP	33	192	6
TAP	34	0	6
TAP	34	0	7
TAP	34	192	6
TAP	34	192	7
HLD	35	0	0	192
TAP	36	0	0
TAP	36	96	0
TAP	36	192	0
HLD	37	0	7	192
TAP	38	0	7
TAP	38	96	7
TAP	38	192	7
HLD	39	0	1	192
TAP	40	0	0
TAP	40	96	0
TAP	40	192	0
HLD	41	0	6	192
TAP	42	0	7
TAP	42	96	7
BRK	42	192	7
TAP	43	0	0
TAP	43	96	0
TAP	43	192	1
TAP	43	288	1
TAP	44	0	2
TAP	44	96	2
TAP	44	192	3
TAP	44	192	4
TAP	45	0	4
TAP	45	96	4
TAP	45	192	5
TAP	45	288	5
TAP	46	0	6
TAP	46	96	6
TAP	46	192	0
TAP	46	192	7
STR	47	0	7
SI_	47	0	7	96	288	4
STR	49	0	0
SI_	49	0	0	96	288	3
TAP	51	0	7
TAP	51	96	7
TAP	51	192	6
TAP	51	288	6
TAP	52	0	5
TAP	52	96	5
TAP	52	192	3
TAP	52	192	4
TAP	53	0	3
TAP	53	96	3
TAP	53	192	2
TAP	53	288	2
TAP	54	0	1
TAP	54	96	1
TAP	54	192	0
TAP	54	192	7
STR	55	0	0
SI_	55	0	0	96	288	3
STR	57	0	7
SI_	57	0	7	96	288	4
HLD	59	0	0	384
HLD	61	0	7	384
TAP	63	0	0
TAP	63	192	0
TAP	64	0	1
TAP	64	192	1
TAP	65	0	2
TAP	65	192	2
TAP	66	0	3
STR	66	192	3
SI_	66	192	3	96	288	7

T_REC_TAP	101
T_REC_BRK	2
T_REC_XTP	0
T_REC_HLD	6
T_REC_XHO	0
T_REC_STR	9
T_REC_BST	0
T_REC_XST	0
T_REC_TTP	0
T_REC_THO	0
T_REC_SLD	9
T_REC_ALL	127
T_NUM_TAP	110
T_NUM_BRK	2
T_NUM_HLD	6
T_NUM_SLD	9
T_NUM_ALL	127
T_JUDGE_TAP	112
T_JUDGE_HLD	32
T_JUDGE_SLD	9
T_JUDGE_ALL	153
TTM_EACHPAIRS	12
TTM_SCR_TAP	55000
TTM_SCR_BRK	5200
TTM_SCR_HLD	6000
TTM_SCR_SLD	13500
TTM_SCR_ALL	79700
TTM_SCR_S	77150
TTM_SCR_SS	79500
TTM_RAT_ACV	10025

