VERSION	0.00.00	1.03.00
FES_MODE	0
BPM_DEF	130.000	130.000	130.000	130.000
MET_DEF	4	4
RESOLUTION	384
CLK_DEF	384
COMPATIBLE_CODE	MA2

BPM	0	0	130.000
MET	0	0	4	4

HLD	2	0	5	768
TAP	2	96	0
TAP	2	192	6
TAP	2	288	4
TAP	3	0	2
TAP	3	96	0
TAP	3	192	6
TAP	3	288	4
HLD	4	0	2	768
TAP	4	96	7
TAP	4	192	1
TAP	4	288	3
TAP	5	0	5
TAP	5	96	7
TAP	5	192	1
TAP	5	288	3
HLD	6	0	5	384
TAP	6	96	0
TAP	6	192	6
TAP	6	288	4
HLD	7	0	2	384
TAP	7	96	7
TAP	7	192	1
TAP	7	288	3
TAP	8	0	5
TAP	8	48	0
TAP	8	48	7
TAP	8	96	0
TAP	8	96	7
TAP	8	144	2
TAP	8	192	5
TAP	8	240	0
TAP	8	240	7
TAP	8	288	0
TAP	8	288	7
HLD	9	0	6	96
HLD	9	96	0	96
HLD	9	192	4	96
BRK	9	288	2
TAP	10	0	4
TAP	10	0	6
TAP	10	48	5
TAP	10	96	1
TAP	10	96	3
TAP	10	144	2
TAP	10	192	4
TAP	10	192	6
TAP	10	240	5
TAP	10	288	1
TAP	10	288	3
TAP	10	336	2
TAP	11	0	4
TAP	11	0	7
TAP	11	48	5
TAP	11	96	0
TAP	11	96	3
TAP	11	144	2
TAP	11	192	4
TAP	11	192	7
TAP	11	240	5
TAP	11	288	0
TAP	11	288	3
TAP	11	336	2
STR	12	0	4
SCL	12	0	4	96	96	1
STR	12	0	7
SCL	12	0	7	96	96	4
STR	12	96	4
SUL	12	96	4	96	96	3
STR	13	0	0
SCR	13	0	0	96	96	3
STR	13	0	3
SCR	13	0	3	96	96	6
STR	13	96	3
SUR	13	96	3	96	96	4
TAP	14	0	4
TAP	14	0	6
TAP	14	48	5
TAP	14	96	1
TAP	14	96	3
TAP	14	144	2
TAP	14	192	4
TAP	14	192	6
TAP	14	240	5
TAP	14	288	1
TAP	14	288	3
TAP	14	336	2
TAP	15	0	4
TAP	15	0	7
TAP	15	48	5
TAP	15	96	0
TAP	15	96	3
TAP	15	144	2
TAP	15	192	4
TAP	15	192	7
TAP	15	240	5
TAP	15	288	0
TAP	15	288	3
TAP	15	336	2
STR	16	0	4
SCL	16	0	4	96	96	1
STR	16	0	7
SCL	16	0	7	96	96	4
STR	16	96	4
SUL	16	96	4	96	96	3
STR	17	0	0
SCR	17	0	0	96	96	3
STR	17	0	3
SCR	17	0	3	96	96	6
STR	17	96	3
SUR	17	96	3	96	96	4
HLD	18	0	2	192
TAP	18	96	0
HLD	18	192	3	192
TAP	18	288	0
HLD	19	0	2	192
TAP	19	96	0
HLD	19	192	3	192
TAP	19	288	0
HLD	20	0	2	96
TAP	20	48	0
HLD	20	96	3	96
TAP	20	144	0
HLD	20	192	2	96
TAP	20	240	0
HLD	20	288	3	96
TAP	20	336	0
HLD	21	0	2	96
TAP	21	48	0
HLD	21	96	3	96
TAP	21	144	0
HLD	21	192	2	96
TAP	21	240	0
HLD	21	288	3	48
HLD	21	336	2	48
HLD	22	0	5	192
TAP	22	96	7
HLD	22	192	4	192
TAP	22	288	7
HLD	23	0	5	192
TAP	23	96	7
HLD	23	192	4	192
TAP	23	288	7
HLD	24	0	5	96
TAP	24	48	7
HLD	24	96	4	96
TAP	24	144	7
HLD	24	192	5	96
TAP	24	240	7
HLD	24	288	4	96
TAP	24	336	7
HLD	25	0	5	96
TAP	25	48	7
HLD	25	96	4	96
TAP	25	144	7
HLD	25	192	5	96
TAP	25	240	7
HLD	25	288	4	48
HLD	25	336	5	48
HLD	26	0	2	192
TAP	26	96	0
HLD	26	192	4	192
TAP	26	288	7
HLD	27	0	2	192
TAP	27	96	0
HLD	27	192	4	192
TAP	27	288	7
HLD	28	0	2	96
TAP	28	48	0
HLD	28	96	4	96
TAP	28	144	7
HLD	28	192	2	96
TAP	28	240	0
HLD	28	288	4	96
TAP	28	336	7
HLD	29	0	2	96
TAP	29	48	0
HLD	29	96	4	96
TAP	29	144	7
HLD	29	192	2	95
TAP	29	240	0
HLD	29	288	4	48
HLD	29	336	2	48
HLD	30	0	5	192
TAP	30	96	7
HLD	30	192	3	192
TAP	30	288	0
HLD	31	0	5	192
TAP	31	96	7
HLD	31	192	3	192
TAP	31	288	0
HLD	32	0	5	96
TAP	32	48	7
HLD	32	96	3	96
TAP	32	144	0
HLD	32	192	5	96
TAP	32	240	7
HLD	32	288	3	96
TAP	32	336	0
HLD	33	0	5	96
TAP	33	48	7
HLD	33	96	3	96
TAP	33	144	0
HLD	33	192	5	96
TAP	33	240	7
HLD	33	288	3	48
HLD	33	336	5	48
STR	34	0	2
SI_	34	0	2	96	48	6
STR	34	96	6
SI_	34	96	6	96	48	2
STR	34	192	2
SI_	34	192	2	96	48	6
STR	34	288	6
SI_	34	288	6	96	48	2
STR	35	0	2
SI_	35	0	2	96	48	6
STR	35	96	6
SI_	35	96	6	96	48	2
STR	35	192	2
SI_	35	192	2	96	48	6
STR	35	288	6
SI_	35	288	6	96	48	2
STR	36	0	2
SCL	36	0	2	96	96	6
STR	36	96	6
SI_	36	96	6	96	96	2
STR	36	192	2
SCR	36	192	2	96	96	6
STR	36	288	6
SI_	36	288	6	96	96	2
STR	37	0	2
SCL	37	0	2	96	96	6
STR	37	96	6
SI_	37	96	6	96	96	2
TAP	37	192	2
BRK	37	288	6
STR	38	0	5
SI_	38	0	5	96	48	1
STR	38	96	1
SI_	38	96	1	96	48	5
STR	38	192	5
SI_	38	192	5	96	48	1
STR	38	288	1
SI_	38	288	1	96	48	5
STR	39	0	5
SI_	39	0	5	96	48	1
STR	39	96	1
SI_	39	96	1	96	48	5
STR	39	192	5
SI_	39	192	5	96	48	1
STR	39	288	1
SI_	39	288	1	96	48	5
STR	40	0	5
SCR	40	0	5	96	96	1
STR	40	96	1
SI_	40	96	1	96	96	5
STR	40	192	5
SCL	40	192	5	96	96	1
STR	40	288	1
SI_	40	288	1	96	96	5
STR	41	0	5
SCR	41	0	5	96	96	1
STR	41	96	1
SI_	41	96	1	96	96	5
TAP	41	192	5
BRK	41	288	1
TAP	42	0	2
TAP	42	0	5
TAP	42	48	0
TAP	42	48	4
TAP	42	96	2
TAP	42	96	5
TAP	42	144	3
TAP	42	144	7
TAP	42	192	2
TAP	42	192	5
TAP	42	240	0
TAP	42	240	4
TAP	42	288	2
TAP	42	288	5
TAP	42	336	3
HLD	42	336	7	240
TAP	43	48	3
TAP	43	96	2
TAP	43	144	1
STR	43	192	0
SI_	43	192	0	96	48	4
TAP	43	288	0
BRK	43	288	7
TAP	44	0	2
TAP	44	0	5
TAP	44	48	3
TAP	44	48	7
TAP	44	96	2
TAP	44	96	5
TAP	44	144	0
TAP	44	144	4
TAP	44	192	2
TAP	44	192	5
TAP	44	240	3
TAP	44	240	7
TAP	44	288	2
TAP	44	288	5
HLD	44	336	0	240
TAP	44	336	4
TAP	45	48	4
TAP	45	96	5
TAP	45	144	6
STR	45	192	7
SI_	45	192	7	96	48	3
BRK	45	288	0
TAP	45	288	7
TAP	46	0	2
TAP	46	0	5
TAP	46	48	0
TAP	46	48	4
TAP	46	96	2
TAP	46	96	5
TAP	46	144	3
TAP	46	144	7
TAP	46	192	2
TAP	46	192	5
TAP	46	240	0
TAP	46	240	4
TAP	46	288	2
TAP	46	288	5
TAP	46	336	3
HLD	46	336	7	240
TAP	47	48	3
TAP	47	96	2
TAP	47	144	1
STR	47	192	0
SI_	47	192	0	96	48	4
BRK	47	288	0
BRK	47	288	7
TAP	47	336	6
HLD	48	0	5	96
TAP	48	48	7
TAP	48	96	4
TAP	48	144	1
HLD	48	192	2	96
TAP	48	240	0
TAP	48	288	3
TAP	49	0	0
TAP	49	0	6
TAP	49	48	5
TAP	49	96	1
TAP	49	96	7
TAP	49	144	2
TAP	49	192	0
TAP	49	192	6
TAP	49	240	5
BRK	49	288	1
BRK	49	288	7
TAP	50	0	2
TAP	50	0	5
TAP	50	48	4
TAP	50	48	7
TAP	50	96	2
TAP	50	96	5
TAP	50	144	0
TAP	50	144	3
TAP	50	192	2
TAP	50	192	5
TAP	50	240	4
TAP	50	240	7
TAP	50	288	2
TAP	50	288	5
HLD	50	336	0	240
TAP	50	336	3
TAP	51	48	3
TAP	51	96	4
TAP	51	144	5
STR	51	192	6
SI_	51	192	6	96	48	2
TAP	51	288	0
BRK	51	288	6
TAP	52	0	2
TAP	52	0	5
TAP	52	48	0
TAP	52	48	3
TAP	52	96	2
TAP	52	96	5
TAP	52	144	4
TAP	52	144	7
TAP	52	192	2
TAP	52	192	5
TAP	52	240	0
TAP	52	240	3
TAP	52	288	2
TAP	52	288	5
TAP	52	336	4
HLD	52	336	7	240
TAP	53	48	4
TAP	53	96	3
TAP	53	144	2
STR	53	192	1
SI_	53	192	1	96	48	5
BRK	53	288	1
TAP	53	288	7
TAP	54	0	2
TAP	54	0	5
TAP	54	48	4
TAP	54	48	7
TAP	54	96	2
TAP	54	96	5
TAP	54	144	0
TAP	54	144	3
TAP	54	192	2
TAP	54	192	5
TAP	54	240	4
TAP	54	240	7
TAP	54	288	2
TAP	54	288	5
HLD	54	336	0	240
TAP	54	336	3
TAP	55	48	3
TAP	55	96	4
TAP	55	144	5
STR	55	192	6
SI_	55	192	6	96	48	2
BRK	55	288	0
BRK	55	288	6
TAP	55	336	1
HLD	56	0	2	96
TAP	56	48	0
TAP	56	96	3
TAP	56	144	6
HLD	56	192	5	96
TAP	56	240	7
TAP	56	288	4
TAP	57	0	0
TAP	57	0	6
TAP	57	48	5
TAP	57	96	1
TAP	57	96	7
TAP	57	144	2
TAP	57	192	0
TAP	57	192	6
TAP	57	240	5
BRK	57	288	1
BRK	57	288	7
TAP	57	336	6
TAP	58	0	5
TAP	58	48	6
BRK	58	48	7
BRK	58	96	4
TAP	58	96	5
TAP	58	144	1
TAP	58	192	2
BRK	58	240	0
TAP	58	240	1
TAP	58	288	2
BRK	58	288	3
TAP	59	0	0
TAP	59	0	6
TAP	59	48	2
TAP	59	48	5
TAP	59	96	1
TAP	59	96	7
TAP	59	144	2
TAP	59	144	5
TAP	59	192	0
TAP	59	192	6
TAP	59	240	2
TAP	59	240	5
BRK	59	288	1
BRK	59	288	7
TAP	59	336	6
TAP	60	0	5
TAP	60	48	6
BRK	60	48	7
BRK	60	96	4
TAP	60	96	5
TAP	60	144	1
TAP	60	192	2
BRK	60	240	0
TAP	60	240	1
TAP	60	288	2
BRK	60	288	3
TAP	61	0	0
TAP	61	0	6
TAP	61	48	2
TAP	61	48	4
TAP	61	96	1
TAP	61	96	7
TAP	61	144	3
TAP	61	144	5
TAP	61	192	0
TAP	61	192	6
TAP	61	240	2
TAP	61	240	4
STR	61	288	1
SCR	61	288	1	96	576	7
STR	61	288	7
SCL	61	288	7	96	576	1

T_REC_TAP	307
T_REC_BRK	25
T_REC_XTP	0
T_REC_HLD	69
T_REC_XHO	0
T_REC_STR	48
T_REC_BST	0
T_REC_XST	0
T_REC_TTP	0
T_REC_THO	0
T_REC_SLD	48
T_REC_ALL	497
T_NUM_TAP	355
T_NUM_BRK	25
T_NUM_HLD	69
T_NUM_SLD	48
T_NUM_ALL	497
T_JUDGE_TAP	380
T_JUDGE_HLD	220
T_JUDGE_SLD	48
T_JUDGE_ALL	648
TTM_EACHPAIRS	108
TTM_SCR_TAP	177500
TTM_SCR_BRK	65000
TTM_SCR_HLD	69000
TTM_SCR_SLD	72000
TTM_SCR_ALL	383500
TTM_SCR_S	369600
TTM_SCR_SS	381000
TTM_RAT_ACV	10065

