VERSION	0.00.00	1.03.00
FES_MODE	0
BPM_DEF	130.000	130.000	130.000	130.000
MET_DEF	4	4
RESOLUTION	384
CLK_DEF	384
COMPATIBLE_CODE	MA2

BPM	0	0	130.000
MET	0	0	4	4

HLD	2	0	3	384
TAP	2	96	5
TAP	2	288	5
HLD	3	0	4	384
TAP	3	96	2
TAP	3	288	2
HLD	4	0	3	384
TAP	4	96	5
TAP	4	288	5
HLD	5	0	4	384
TAP	5	96	2
TAP	5	288	2
HLD	6	0	3	384
TAP	6	96	5
TAP	6	288	5
HLD	7	0	4	288
TAP	7	96	2
TAP	7	288	2
HLD	8	0	0	96
HLD	8	0	6	96
HLD	8	192	2	96
HLD	8	192	4	96
TAP	9	0	0
TAP	9	0	7
TAP	9	96	1
STR	9	96	5
SI_	9	96	5	96	96	2
TAP	10	0	3
TAP	10	0	6
TAP	10	96	5
TAP	10	192	3
BRK	10	288	2
BRK	10	288	6
TAP	11	0	3
TAP	11	96	5
TAP	11	192	0
TAP	11	288	2
HLD	12	0	7	192
TAP	12	96	0
HLD	12	192	3	192
TAP	12	288	4
HLD	13	0	7	192
TAP	13	96	0
HLD	13	192	3	96
TAP	13	288	4
TAP	14	0	4
HLD	14	0	5	96
TAP	14	96	0
HLD	14	192	2	96
TAP	14	192	3
TAP	14	288	7
TAP	15	0	4
HLD	15	0	5	96
STR	15	96	0
SCR	15	96	0	96	96	4
STR	16	0	4
SCL	16	0	4	96	48	2
STR	16	0	5
SCR	16	0	5	96	48	7
STR	16	192	2
SCL	16	192	2	96	48	0
STR	16	192	3
SCR	16	192	3	96	48	5
STR	17	0	4
SCL	17	0	4	96	48	2
STR	17	0	5
SCR	17	0	5	96	48	7
TAP	17	192	3
TAP	17	192	4
TAP	18	0	1
TAP	18	0	5
TAP	18	96	0
TAP	18	96	4
TAP	18	192	2
TAP	18	192	6
TAP	18	288	1
TAP	18	288	5
TAP	19	0	3
TAP	19	0	6
TAP	19	96	3
TAP	19	96	4
TAP	19	192	4
TAP	19	192	7
TAP	19	288	5
TAP	19	288	6
TAP	20	0	1
TAP	20	96	0
TAP	20	96	7
TAP	20	192	3
TAP	20	192	4
TAP	20	288	1
TAP	20	288	6
TAP	21	0	4
HLD	21	0	5	96
TAP	21	96	1
HLD	21	192	2	96
TAP	21	192	3
TAP	21	288	6
TAP	22	0	0
TAP	22	0	5
TAP	22	96	1
TAP	22	96	6
TAP	22	192	2
TAP	22	192	7
TAP	22	288	1
TAP	22	288	6
TAP	23	0	6
HLD	23	0	7	96
TAP	23	96	5
TAP	23	192	4
TAP	23	192	5
TAP	23	288	1
TAP	23	288	4
TAP	24	0	6
HLD	24	0	7	96
TAP	24	96	5
TAP	24	192	4
TAP	24	192	5
TAP	24	288	4
TAP	24	288	5
TAP	25	0	1
TAP	25	0	4
TAP	25	96	3
TAP	25	96	6
TAP	25	192	0
TAP	25	192	4
TAP	25	288	2
HLD	26	0	3	96
TAP	26	0	7
TAP	26	96	5
TAP	26	192	0
HLD	26	192	4	96
TAP	26	288	2
TAP	27	0	1
HLD	27	0	7	96
TAP	27	96	6
TAP	27	192	2
TAP	27	192	4
TAP	27	288	4
TAP	27	288	5
TAP	28	0	1
TAP	28	0	5
TAP	28	96	2
TAP	28	96	7
TAP	28	192	0
TAP	28	192	5
TAP	28	288	2
TAP	28	288	3
TAP	29	0	4
HLD	29	0	5	288
TAP	29	96	4
HLD	29	192	0	96
TAP	30	0	0
TAP	30	0	7
TAP	30	96	1
TAP	30	96	6
TAP	30	192	2
TAP	30	192	5
TAP	30	288	3
TAP	30	288	4
TAP	31	0	4
TAP	31	0	5
TAP	31	96	0
TAP	31	96	3
TAP	31	192	2
TAP	31	192	3
TAP	31	288	4
TAP	31	288	7
HLD	32	0	5	96
HLD	32	96	3	96
HLD	32	192	2	96
TAP	32	288	0
TAP	33	0	1
TAP	33	0	7
TAP	33	96	0
TAP	33	96	2
TAP	33	192	1
TAP	33	192	7
BRK	33	288	3
BRK	33	288	4
TAP	34	0	0
TAP	34	0	5
TAP	34	96	2
TAP	34	96	3
TAP	34	192	2
TAP	34	192	7
TAP	34	288	4
TAP	34	288	5
TAP	35	0	0
HLD	35	0	1	192
TAP	35	96	2
TAP	35	192	0
TAP	35	240	1
TAP	35	288	1
HLD	36	0	2	96
TAP	36	0	6
TAP	36	96	0
TAP	36	192	1
HLD	36	192	5	96
TAP	36	288	7
HLD	37	0	6	192
TAP	37	0	7
TAP	37	96	5
TAP	37	192	7
TAP	37	240	6
TAP	37	288	6
TAP	38	0	3
STR	38	0	7
SCR	38	0	7	96	48	2
STR	38	192	0
SCL	38	192	0	96	48	5
TAP	38	192	4
TAP	39	0	0
HLD	39	0	1	192
TAP	39	96	2
TAP	39	192	0
TAP	39	240	1
TAP	39	288	1
TAP	40	0	0
TAP	40	0	7
TAP	40	96	2
TAP	40	96	5
TAP	40	192	0
TAP	40	192	7
TAP	40	288	2
TAP	40	288	3
TAP	41	0	2
TAP	41	0	7
TAP	41	96	4
TAP	41	96	5
TAP	41	192	2
TAP	41	192	5
BRK	41	288	3
BRK	41	288	4
TAP	42	0	1
TAP	42	0	3
STR	42	96	4
SCL	42	96	4	96	96	0
TAP	42	96	6
HLD	43	0	3	96
TAP	43	0	5
STR	43	96	1
SI_	43	96	1	96	48	6
TAP	44	0	4
HLD	44	0	5	96
STR	44	96	0
SCR	44	96	0	96	96	4
TAP	45	0	1
TAP	45	0	2
TAP	45	96	6
TAP	45	192	5
TAP	45	192	6
TAP	45	288	1
TAP	46	0	0
TAP	46	0	7
TAP	46	96	2
TAP	46	96	5
TAP	46	192	0
TAP	46	192	1
TAP	46	288	2
TAP	46	288	4
TAP	47	0	3
TAP	47	0	6
TAP	47	96	2
TAP	47	96	3
TAP	47	192	1
TAP	47	192	4
TAP	47	288	4
TAP	47	288	5
HLD	48	0	0	96
HLD	48	0	5	96
HLD	48	192	3	96
HLD	48	192	6	96
TAP	49	0	1
TAP	49	0	6
TAP	49	96	3
TAP	49	96	4
TAP	49	192	0
TAP	49	192	5
BRK	49	288	2
BRK	49	288	7
TAP	50	0	1
TAP	50	0	4
TAP	50	96	1
TAP	50	96	4
TAP	50	192	2
TAP	50	192	5
STR	50	288	6
SI_	50	288	6	96	48	3
STR	50	288	7
SI_	50	288	7	96	48	2
STR	51	96	0
SI_	51	96	0	96	48	5
STR	51	96	1
SI_	51	96	1	96	48	4
TAP	52	0	1
TAP	52	0	5
TAP	52	96	2
TAP	52	96	6
TAP	52	192	0
TAP	52	192	4
TAP	52	288	1
TAP	52	288	7
TAP	53	0	2
TAP	53	0	6
TAP	53	96	1
TAP	53	96	5
TAP	53	192	3
TAP	53	192	7
TAP	53	288	0
TAP	53	288	6
TAP	54	0	0
TAP	54	0	7
TAP	54	96	2
TAP	54	96	5
TAP	54	192	0
TAP	54	192	1
TAP	54	288	2
TAP	54	288	4
TAP	55	0	3
TAP	55	0	6
TAP	55	96	2
TAP	55	96	3
TAP	55	192	1
TAP	55	192	4
TAP	55	288	4
TAP	55	288	5
HLD	56	0	0	96
HLD	56	0	6	96
BRK	56	192	2
BRK	56	192	7
TAP	57	0	1
TAP	57	0	6
TAP	57	96	3
TAP	57	96	4
TAP	57	192	0
TAP	57	192	5
TAP	57	288	2
TAP	57	288	7
TAP	58	0	0
HLD	58	0	4	96
TAP	58	96	3
HLD	58	192	3	96
TAP	58	192	7
TAP	58	288	4
TAP	59	0	1
TAP	59	0	6
TAP	59	96	3
TAP	59	96	4
TAP	59	192	0
TAP	59	192	5
TAP	59	288	2
TAP	59	288	3
TAP	60	0	4
TAP	60	0	7
STR	60	96	2
SCR	60	96	2	96	96	5
TAP	60	96	3
TAP	61	0	1
TAP	61	0	6
TAP	61	96	3
TAP	61	96	4
TAP	61	192	0
TAP	61	192	5
TAP	61	288	3
TAP	61	288	4
TAP	62	0	1
TAP	62	0	6
TAP	62	96	3
TAP	62	192	4
STR	62	288	3
SCL	62	288	3	96	192	0
STR	62	288	4
SCR	62	288	4	96	192	7

T_REC_TAP	280
T_REC_BRK	10
T_REC_XTP	0
T_REC_HLD	44
T_REC_XHO	0
T_REC_STR	20
T_REC_BST	0
T_REC_XST	0
T_REC_TTP	0
T_REC_THO	0
T_REC_SLD	20
T_REC_ALL	374
T_NUM_TAP	300
T_NUM_BRK	10
T_NUM_HLD	44
T_NUM_SLD	20
T_NUM_ALL	374
T_JUDGE_TAP	310
T_JUDGE_HLD	138
T_JUDGE_SLD	20
T_JUDGE_ALL	468
TTM_EACHPAIRS	141
TTM_SCR_TAP	150000
TTM_SCR_BRK	26000
TTM_SCR_HLD	44000
TTM_SCR_SLD	30000
TTM_SCR_ALL	250000
TTM_SCR_S	241550
TTM_SCR_SS	249000
TTM_RAT_ACV	10040

