VERSION	0.00.00	1.03.00
FES_MODE	0
BPM_DEF	130.000	130.000	130.000	130.000
MET_DEF	4	4
RESOLUTION	384
CLK_DEF	384
COMPATIBLE_CODE	MA2

BPM	0	0	130.000
MET	0	0	4	4

TAP	2	0	6
TAP	2	192	6
TAP	3	0	1
TAP	3	192	1
TAP	4	0	5
TAP	4	192	5
TAP	5	0	2
TAP	5	192	2
TAP	6	0	4
TAP	6	0	5
TAP	6	192	4
TAP	6	192	5
TAP	7	0	2
TAP	7	0	3
TAP	7	192	2
TAP	7	192	3
TAP	8	0	0
TAP	8	0	6
TAP	8	192	2
TAP	8	192	5
TAP	9	0	3
STR	9	96	2
SUL	9	96	2	96	97	5
TAP	9	96	5
TAP	10	0	6
TAP	10	96	5
TAP	10	192	4
TAP	10	288	2
TAP	10	288	3
TAP	11	0	2
TAP	11	96	1
TAP	11	192	0
TAP	11	288	6
TAP	11	288	7
TAP	12	0	7
TAP	12	96	0
TAP	12	192	7
TAP	12	288	3
TAP	13	0	6
TAP	13	96	1
TAP	13	192	6
TAP	13	288	3
TAP	14	0	5
TAP	14	96	0
TAP	14	192	2
TAP	14	288	7
TAP	15	0	1
TAP	15	96	0
TAP	15	192	1
TAP	15	288	2
TAP	16	0	4
TAP	16	96	2
TAP	16	192	3
TAP	16	288	5
STR	17	0	0
SCR	17	0	0	96	192	3
TAP	18	0	2
HLD	18	96	7	192
TAP	18	288	6
TAP	19	0	5
HLD	19	96	5	192
TAP	19	288	4
TAP	20	0	0
HLD	20	96	0	192
TAP	20	288	1
TAP	21	0	2
HLD	21	96	2	192
TAP	21	288	3
TAP	22	0	1
HLD	22	96	1	192
TAP	22	288	0
TAP	23	0	1
TAP	23	96	1
TAP	23	192	2
TAP	23	288	2
TAP	23	288	3
TAP	24	0	6
HLD	24	96	6	192
TAP	24	288	7
TAP	25	0	6
TAP	25	96	6
TAP	25	192	5
TAP	25	288	4
TAP	25	288	5
TAP	26	0	4
TAP	26	96	4
HLD	26	192	5	96
TAP	27	0	6
TAP	27	96	6
HLD	27	192	7	96
TAP	28	0	3
TAP	28	96	3
HLD	28	192	2	96
TAP	29	0	1
TAP	29	96	1
HLD	29	192	0	96
TAP	30	0	7
TAP	30	96	6
HLD	30	192	5	96
HLD	30	192	7	96
TAP	31	0	0
TAP	31	96	1
HLD	31	192	0	96
HLD	31	192	2	96
TAP	32	0	3
TAP	32	0	4
TAP	32	96	3
TAP	32	96	4
HLD	32	192	2	96
HLD	32	192	5	96
TAP	33	0	1
TAP	33	96	0
TAP	33	192	7
BRK	33	288	6
TAP	34	0	4
TAP	34	96	3
TAP	34	192	5
TAP	34	288	2
TAP	35	0	1
TAP	35	96	0
TAP	35	192	1
TAP	35	240	0
TAP	35	288	1
TAP	36	0	6
TAP	36	96	0
TAP	36	96	7
TAP	36	192	1
TAP	36	288	0
TAP	36	288	7
TAP	37	0	6
TAP	37	96	7
TAP	37	192	6
TAP	37	240	7
TAP	37	288	6
TAP	38	0	2
TAP	38	96	0
TAP	38	96	7
TAP	38	192	5
TAP	38	288	0
TAP	38	288	7
TAP	39	0	1
TAP	39	96	0
TAP	39	192	1
TAP	39	240	0
TAP	39	288	1
TAP	40	0	0
TAP	40	0	7
TAP	40	96	1
TAP	40	96	6
TAP	40	192	0
TAP	40	192	7
TAP	40	288	2
STR	41	0	0
SSL	41	0	0	96	192	4
BRK	42	0	6
BRK	42	96	1
TAP	42	192	4
TAP	42	288	2
TAP	43	0	3
TAP	43	96	5
TAP	43	192	3
TAP	43	288	7
TAP	44	0	0
TAP	44	96	0
TAP	44	96	1
TAP	44	192	7
TAP	44	288	6
TAP	44	288	7
TAP	45	0	1
TAP	45	96	1
TAP	45	96	6
TAP	45	192	6
TAP	45	288	1
TAP	45	288	6
TAP	46	0	2
TAP	46	0	5
TAP	46	96	3
TAP	46	96	4
TAP	46	192	3
TAP	46	288	6
TAP	47	0	7
TAP	47	96	6
TAP	47	192	4
TAP	47	288	5
TAP	48	0	0
TAP	48	0	1
TAP	48	192	6
TAP	48	192	7
TAP	49	0	1
TAP	49	0	6
TAP	49	96	2
TAP	49	96	5
TAP	49	192	1
TAP	49	192	5
BRK	49	288	6
TAP	50	0	7
TAP	50	96	6
TAP	50	192	6
TAP	50	288	4
TAP	50	288	5
TAP	51	0	0
TAP	51	96	1
TAP	51	192	1
TAP	51	288	2
TAP	51	288	3
TAP	52	0	6
TAP	52	96	0
TAP	52	192	6
TAP	52	288	0
TAP	52	288	7
TAP	53	0	1
TAP	53	96	7
TAP	53	192	1
TAP	53	288	0
TAP	53	288	7
TAP	54	0	2
TAP	54	96	4
TAP	54	192	5
TAP	54	288	5
TAP	54	288	6
TAP	55	0	5
TAP	55	96	4
TAP	55	192	5
TAP	55	288	7
TAP	56	0	0
TAP	56	0	7
TAP	56	192	1
TAP	56	192	7
TAP	57	0	1
TAP	57	0	5
TAP	57	96	3
TAP	57	192	2
TAP	57	192	5
TAP	57	288	6
BRK	58	0	0
BRK	58	192	7
TAP	59	0	2
TAP	59	0	6
TAP	59	96	5
TAP	59	192	2
TAP	59	192	5
TAP	59	288	5
BRK	60	0	0
BRK	60	0	1
BRK	60	192	6
BRK	60	192	7
TAP	61	0	0
TAP	61	0	7
TAP	61	96	1
TAP	61	96	6
TAP	61	192	2
TAP	61	192	5
TAP	61	288	3
TAP	61	288	4
STR	62	0	3
SCL	62	0	3	96	480	0
STR	62	0	4
SCR	62	0	4	96	480	7

T_REC_TAP	222
T_REC_BRK	10
T_REC_XTP	0
T_REC_HLD	16
T_REC_XHO	0
T_REC_STR	5
T_REC_BST	0
T_REC_XST	0
T_REC_TTP	0
T_REC_THO	0
T_REC_SLD	5
T_REC_ALL	258
T_NUM_TAP	227
T_NUM_BRK	10
T_NUM_HLD	16
T_NUM_SLD	5
T_NUM_ALL	258
T_JUDGE_TAP	237
T_JUDGE_HLD	44
T_JUDGE_SLD	5
T_JUDGE_ALL	286
TTM_EACHPAIRS	52
TTM_SCR_TAP	113500
TTM_SCR_BRK	26000
TTM_SCR_HLD	16000
TTM_SCR_SLD	7500
TTM_SCR_ALL	163000
TTM_SCR_S	157150
TTM_SCR_SS	162000
TTM_RAT_ACV	10061

