VERSION	0.00.00	1.03.00
FES_MODE	0
BPM_DEF	130.000	130.000	130.000	130.000
MET_DEF	4	4
RESOLUTION	384
CLK_DEF	384
COMPATIBLE_CODE	MA2

BPM	0	0	130.000
MET	0	0	4	4

TAP	8	0	0
TAP	8	0	6
TAP	8	192	2
TAP	8	192	4
TAP	9	0	3
TAP	9	0	4
TAP	10	0	3
TAP	10	96	3
TAP	10	192	3
TAP	11	0	4
TAP	11	96	4
TAP	11	192	4
TAP	12	0	7
TAP	12	192	3
TAP	13	0	7
TAP	13	192	3
TAP	14	0	1
TAP	14	192	6
TAP	15	0	1
TAP	15	192	3
TAP	16	0	1
TAP	16	0	4
TAP	16	192	3
TAP	16	192	6
TAP	17	0	1
TAP	17	0	4
TAP	17	192	3
TAP	17	192	4
TAP	18	0	0
TAP	18	192	7
TAP	19	0	6
TAP	19	0	7
TAP	19	192	0
TAP	19	192	5
TAP	20	0	1
TAP	20	192	2
TAP	20	192	5
TAP	21	0	1
TAP	21	192	6
TAP	22	0	1
TAP	22	192	0
STR	23	0	7
SI_	23	0	7	96	144	4
HLD	24	0	6	192
TAP	25	0	0
TAP	25	96	7
TAP	25	192	1
TAP	26	0	6
TAP	26	192	1
TAP	27	0	1
TAP	27	0	6
TAP	27	192	2
TAP	27	192	5
TAP	28	0	1
TAP	28	192	7
TAP	29	0	4
TAP	29	0	5
TAP	29	192	0
STR	30	0	0
SI_	30	0	0	96	144	3
STR	30	0	7
SI_	30	0	7	96	144	4
TAP	31	0	4
TAP	31	0	5
TAP	31	192	2
TAP	31	192	3
TAP	32	0	0
TAP	32	192	1
TAP	33	0	0
TAP	33	96	0
TAP	33	192	0
TAP	34	0	0
TAP	34	0	6
TAP	34	192	1
TAP	34	192	7
TAP	35	0	0
TAP	35	96	0
TAP	35	192	0
TAP	36	0	0
TAP	36	0	6
TAP	36	192	1
TAP	36	192	7
TAP	37	0	7
TAP	37	96	7
TAP	37	192	7
TAP	38	0	0
TAP	38	0	1
TAP	38	192	6
TAP	38	192	7
TAP	39	0	0
TAP	39	96	0
TAP	39	192	0
TAP	40	0	0
TAP	40	0	7
TAP	40	192	0
TAP	40	192	7
BRK	41	0	6
TAP	42	0	5
TAP	42	96	3
TAP	42	192	4
TAP	43	0	5
TAP	43	192	2
TAP	44	0	1
TAP	44	96	0
TAP	44	192	2
TAP	45	0	6
TAP	45	192	1
TAP	46	0	4
TAP	46	192	3
TAP	47	0	1
TAP	47	192	0
TAP	48	0	0
TAP	48	0	1
TAP	48	192	6
TAP	48	192	7
TAP	49	0	1
TAP	49	0	6
TAP	49	192	5
TAP	50	0	1
TAP	50	96	1
TAP	50	192	2
TAP	51	0	6
TAP	51	0	7
TAP	51	192	0
TAP	51	192	1
TAP	52	0	5
TAP	52	96	5
TAP	52	192	4
TAP	53	0	2
TAP	53	96	2
TAP	53	192	3
TAP	54	0	3
TAP	54	192	4
TAP	55	0	6
TAP	55	192	7
TAP	56	0	0
TAP	56	192	1
TAP	56	192	7
TAP	57	0	1
TAP	57	0	6
TAP	57	192	5
TAP	58	0	0
TAP	58	192	7
TAP	59	0	1
TAP	59	0	6
TAP	59	192	0
TAP	60	0	6
TAP	60	192	3
TAP	60	192	4
TAP	61	0	1
TAP	61	0	6
BRK	61	192	0

T_REC_TAP	143
T_REC_BRK	2
T_REC_XTP	0
T_REC_HLD	1
T_REC_XHO	0
T_REC_STR	3
T_REC_BST	0
T_REC_XST	0
T_REC_TTP	0
T_REC_THO	0
T_REC_SLD	3
T_REC_ALL	152
T_NUM_TAP	146
T_NUM_BRK	2
T_NUM_HLD	1
T_NUM_SLD	3
T_NUM_ALL	152
T_JUDGE_TAP	148
T_JUDGE_HLD	4
T_JUDGE_SLD	3
T_JUDGE_ALL	155
TTM_EACHPAIRS	34
TTM_SCR_TAP	73000
TTM_SCR_BRK	5200
TTM_SCR_HLD	1000
TTM_SCR_SLD	4500
TTM_SCR_ALL	83700
TTM_SCR_S	81000
TTM_SCR_SS	83500
TTM_RAT_ACV	10023

