VERSION	0.00.00	1.03.00
FES_MODE	0
BPM_DEF	185.000	185.000	185.000	185.000
MET_DEF	4	4
RESOLUTION	384
CLK_DEF	384
COMPATIBLE_CODE	MA2

BPM	0	0	185.000
MET	0	0	4	4

TAP	9	0	3
TAP	9	96	3
TAP	9	96	5
TAP	9	192	3
TAP	9	240	3
TAP	9	288	5
TAP	9	336	3
TAP	10	48	3
TAP	10	96	5
TAP	10	144	3
TAP	10	192	3
TAP	10	288	3
TAP	10	288	5
TAP	11	0	3
TAP	11	96	3
TAP	11	96	5
TAP	11	192	3
TAP	11	240	3
TAP	11	288	5
TAP	11	336	3
TAP	12	48	2
TAP	12	96	3
TAP	12	144	4
TAP	12	192	5
TAP	12	240	2
TAP	12	264	4
TAP	12	288	2
TAP	12	336	5
TAP	12	360	3
TAP	13	0	5
TAP	13	96	0
TAP	13	96	6
TAP	13	192	6
TAP	13	240	6
TAP	13	288	0
TAP	13	336	6
TAP	14	48	6
TAP	14	96	0
TAP	14	144	6
TAP	14	192	6
TAP	14	288	0
TAP	14	288	6
TAP	15	0	6
TAP	15	96	0
TAP	15	96	6
TAP	15	192	6
TAP	15	240	6
TAP	15	288	0
TAP	15	336	6
TAP	16	48	0
STR	16	96	7
SI_	16	96	7	96	48	3
TAP	16	144	0
TAP	16	192	7
HLD	16	336	0	96
TAP	17	48	7
TAP	17	96	5
TAP	17	144	5
TAP	17	192	3
TAP	17	240	3
TAP	17	288	1
TAP	17	336	1
TAP	18	0	6
TAP	18	0	7
TAP	18	96	0
TAP	18	96	1
TAP	18	192	2
TAP	18	240	3
TAP	18	288	2
HLD	18	336	7	96
TAP	19	48	1
TAP	19	96	3
TAP	19	144	3
TAP	19	192	5
TAP	19	240	5
TAP	19	288	7
TAP	20	0	1
TAP	20	0	6
BRK	20	96	2
BRK	20	96	7
BRK	20	192	0
BRK	20	192	5
TAP	20	240	3
TAP	20	288	2
TAP	20	336	1
TAP	21	48	4
TAP	21	96	2
TAP	21	144	1
TAP	21	144	7
TAP	21	240	4
TAP	21	288	5
TAP	21	336	6
TAP	22	48	3
TAP	22	96	5
TAP	22	144	0
TAP	22	144	6
TAP	22	240	0
TAP	22	240	7
TAP	22	288	1
TAP	22	288	6
TAP	22	336	2
TAP	22	336	5
STR	23	96	4
SI_	23	96	4	96	48	0
TAP	23	96	6
STR	23	240	2
SI_	23	240	2	96	48	7
TAP	24	0	0
STR	24	192	1
SI_	24	192	1	96	48	4
HLD	24	192	5	528
TAP	24	288	1
TAP	25	336	4
TAP	26	48	5
TAP	26	144	2
TAP	26	192	3
TAP	26	288	1
TAP	26	288	6
HLD	27	0	7	96
HLD	27	96	0	96
HLD	27	192	1	96
TAP	27	288	2
TAP	27	336	3
TAP	28	48	2
TAP	28	144	5
TAP	28	192	4
TAP	28	288	1
TAP	28	288	6
HLD	29	0	3	96
HLD	29	96	4	96
HLD	29	192	5	96
TAP	29	288	6
TAP	29	336	7
TAP	30	48	6
TAP	30	144	1
TAP	30	192	0
TAP	30	288	1
TAP	30	288	6
TAP	31	0	0
TAP	31	0	7
TAP	31	96	1
TAP	31	96	6
TAP	31	192	4
TAP	31	240	3
TAP	31	336	1
TAP	31	336	5
BRK	32	0	2
BRK	32	0	6
STR	33	0	3
SI_	33	0	3	96	48	7
STR	33	96	5
SI_	33	96	5	96	48	1
TAP	33	192	6
TAP	33	240	7
TAP	33	288	0
TAP	33	336	1
TAP	34	0	2
STR	34	96	4
SI_	34	96	4	96	48	1
STR	34	96	5
SI_	34	96	5	96	48	0
BRK	34	192	4
BRK	34	192	5
STR	35	0	4
SI_	35	0	4	96	48	0
STR	35	96	2
SI_	35	96	2	96	48	6
TAP	35	192	1
TAP	35	240	0
TAP	35	288	7
TAP	35	336	6
TAP	36	0	5
STR	36	96	2
SI_	36	96	2	96	48	7
STR	36	96	3
SI_	36	96	3	96	48	6
BRK	36	192	2
BRK	36	192	3
STR	37	0	0
SI_	37	0	0	96	48	4
STR	37	96	6
SI_	37	96	6	96	48	2
TAP	37	192	5
TAP	37	240	4
TAP	37	288	3
TAP	37	336	2
TAP	38	0	1
STR	38	96	4
SI_	38	96	4	96	48	1
STR	38	96	5
SI_	38	96	5	96	48	0
BRK	38	192	4
BRK	38	192	5
STR	39	0	7
SI_	39	0	7	96	48	3
STR	39	96	1
SI_	39	96	1	96	48	5
TAP	39	192	2
TAP	39	240	3
TAP	39	288	4
TAP	39	336	5
TAP	40	0	6
STR	40	96	2
SI_	40	96	2	96	48	7
STR	40	96	3
SI_	40	96	3	96	48	6
BRK	40	192	2
BRK	40	192	3
HLD	41	0	0	96
TAP	41	96	2
HLD	41	144	2	96
TAP	41	240	4
TAP	41	288	5
TAP	41	336	6
TAP	42	0	3
TAP	42	0	7
TAP	42	48	2
TAP	42	48	6
TAP	42	96	1
TAP	42	96	5
TAP	42	144	0
TAP	42	144	4
STR	42	192	3
SI_	42	192	3	96	48	6
STR	42	192	7
SI_	42	192	7	96	48	2
BRK	42	288	3
BRK	42	288	7
TAP	43	48	0
TAP	43	96	1
TAP	43	192	6
TAP	43	240	5
HLD	43	336	2	144
STR	44	96	4
SUL	44	96	4	96	96	3
TAP	45	0	1
TAP	45	48	7
TAP	45	72	0
TAP	45	96	7
TAP	45	144	1
TAP	45	192	5
TAP	45	240	3
TAP	45	264	4
TAP	45	288	3
TAP	45	336	5
TAP	46	0	1
TAP	46	48	7
TAP	46	72	0
TAP	46	96	7
TAP	46	144	1
HLD	46	192	5	96
TAP	46	288	3
HLD	47	0	1	96
TAP	47	48	7
HLD	47	96	6	96
TAP	47	144	0
HLD	47	192	1	96
TAP	47	240	7
HLD	47	288	6	96
TAP	47	336	0
TAP	48	0	1
TAP	48	48	0
TAP	48	96	7
TAP	48	144	6
BRK	48	192	0
TAP	48	192	5
TAP	49	0	6
TAP	49	48	2
TAP	49	72	3
TAP	49	96	2
TAP	49	144	3
TAP	49	192	1
TAP	49	240	5
TAP	49	264	4
TAP	49	288	5
TAP	49	336	4
TAP	50	0	6
TAP	50	48	6
TAP	50	96	7
TAP	50	144	7
TAP	50	192	0
TAP	50	240	0
TAP	50	288	1
TAP	50	336	1
TAP	51	0	2
STR	51	0	3
SI_	51	0	3	96	48	7
STR	51	192	4
SI_	51	192	4	96	48	0
TAP	51	192	6
STR	52	0	7
SI_	52	0	7	96	48	4
STR	52	48	7
SI_	52	48	7	96	48	2
STR	52	96	7
SI_	52	96	7	96	48	3
STR	52	336	0
SI_	52	336	0	96	48	4
TAP	53	48	0
STR	53	96	7
SI_	53	96	7	96	48	3
TAP	53	144	7
STR	53	192	1
SI_	53	192	1	96	48	5
TAP	53	240	1
STR	53	288	6
SI_	53	288	6	96	48	2
TAP	53	336	6
TAP	54	0	0
TAP	54	48	0
HLD	54	96	0	96
TAP	54	192	4
TAP	54	240	4
TAP	54	288	4
STR	54	336	2
SI_	54	336	2	96	48	5
TAP	55	48	2
STR	55	96	6
SI_	55	96	6	96	48	1
TAP	55	144	6
STR	55	192	3
SI_	55	192	3	96	48	0
TAP	55	240	3
STR	55	288	7
SI_	55	288	7	96	48	4
TAP	56	0	7
BRK	56	96	0
BRK	56	192	0
TAP	56	240	7
TAP	56	288	7
STR	56	336	7
SCL	56	336	7	96	48	4
TAP	57	48	0
TAP	57	96	0
STR	57	144	0
SCR	57	144	0	96	48	3
TAP	57	240	6
TAP	57	288	6
STR	57	336	6
SUL	57	336	6	96	48	2
TAP	58	48	1
TAP	58	96	1
STR	58	144	1
SUR	58	144	1	96	48	5
TAP	58	240	7
TAP	58	288	7
TAP	58	336	7
STR	59	0	1
SCL	59	0	1	96	96	6
STR	59	96	6
SCL	59	96	6	96	96	3
STR	59	192	3
SCL	59	192	3	96	96	0
STR	60	0	7
SI_	60	0	7	96	48	4
TAP	60	96	7
STR	60	144	3
SV_	60	144	3	96	48	0
TAP	60	240	3
STR	60	336	7
SI_	60	336	7	96	48	3
TAP	61	48	7
STR	61	96	0
SI_	61	96	0	96	48	4
TAP	61	144	0
STR	61	192	6
SI_	61	192	6	96	48	2
TAP	61	240	6
STR	61	288	1
SI_	61	288	1	96	48	5
TAP	61	336	1
TAP	62	0	7
TAP	62	48	7
HLD	62	96	7	96
TAP	62	192	4
TAP	62	240	4
TAP	62	288	4
STR	62	336	5
SI_	62	336	5	96	48	2
TAP	63	48	5
STR	63	96	1
SI_	63	96	1	96	48	6
TAP	63	144	1
STR	63	192	4
SI_	63	192	4	96	48	7
TAP	63	240	4
STR	63	288	0
SI_	63	288	0	96	48	3
TAP	64	0	0
BRK	64	96	7
BRK	64	192	7
TAP	64	240	0
TAP	64	288	0
STR	64	336	0
SCR	64	336	0	96	48	3
TAP	65	48	7
TAP	65	96	7
STR	65	144	7
SCL	65	144	7	96	48	4
TAP	65	240	1
TAP	65	288	1
STR	65	336	1
SUR	65	336	1	96	48	5
TAP	66	48	6
TAP	66	96	6
STR	66	144	6
SUL	66	144	6	96	48	2
TAP	66	240	0
TAP	66	288	0
TAP	66	336	0
HLD	67	96	0	96
HLD	67	96	5	96
HLD	67	240	1	96
HLD	67	240	3	96
TAP	68	0	0
TAP	68	0	1
TAP	68	192	2
TAP	68	240	3
STR	68	288	4
SSL	68	288	4	96	672	0
TAP	68	336	5
BRK	69	0	4
HLD	71	0	7	96
HLD	71	96	0	96
HLD	71	192	1	96
TAP	71	288	2
TAP	71	336	3
TAP	72	48	2
STR	72	144	5
SI_	72	144	5	96	48	1
TAP	72	192	4
TAP	72	288	7
HLD	73	0	0	96
HLD	73	96	7	96
HLD	73	192	6	96
TAP	73	288	5
TAP	73	336	4
TAP	74	48	5
STR	74	144	2
SI_	74	144	2	96	48	6
TAP	74	192	3
TAP	74	288	0
TAP	75	0	0
TAP	75	48	7
TAP	75	96	1
TAP	75	144	6
TAP	75	192	3
TAP	75	240	4
TAP	75	336	1
TAP	75	336	5
TAP	76	0	2
TAP	76	0	6
TAP	76	144	0
TAP	76	192	6
TAP	76	240	2
TAP	76	288	4
STR	76	336	3
SI_	76	336	3	96	48	7
BRK	77	96	0

T_REC_TAP	285
T_REC_BRK	23
T_REC_XTP	0
T_REC_HLD	29
T_REC_XHO	0
T_REC_STR	61
T_REC_BST	0
T_REC_XST	0
T_REC_TTP	0
T_REC_THO	0
T_REC_SLD	61
T_REC_ALL	459
T_NUM_TAP	346
T_NUM_BRK	23
T_NUM_HLD	29
T_NUM_SLD	61
T_NUM_ALL	459
T_JUDGE_TAP	369
T_JUDGE_HLD	68
T_JUDGE_SLD	61
T_JUDGE_ALL	498
TTM_EACHPAIRS	47
TTM_SCR_TAP	173000
TTM_SCR_BRK	59800
TTM_SCR_HLD	29000
TTM_SCR_SLD	91500
TTM_SCR_ALL	353300
TTM_SCR_S	340500
TTM_SCR_SS	351000
TTM_RAT_ACV	10065

