VERSION	0.00.00	1.03.00
FES_MODE	0
BPM_DEF	185.000	185.000	185.000	185.000
MET_DEF	4	4
RESOLUTION	384
CLK_DEF	384
COMPATIBLE_CODE	MA2

BPM	0	0	185.000
MET	0	0	4	4

TAP	9	0	3
TAP	9	96	0
TAP	9	96	1
TAP	9	192	2
TAP	9	288	6
TAP	9	288	7
TAP	10	0	3
TAP	10	96	1
TAP	10	96	7
TAP	10	192	2
TAP	10	288	0
TAP	10	288	6
TAP	11	0	3
TAP	11	96	0
TAP	11	96	2
TAP	11	192	2
TAP	11	288	5
TAP	11	288	7
TAP	12	0	3
TAP	12	96	0
STR	12	96	1
SI_	12	96	1	96	48	5
TAP	13	0	4
TAP	13	96	6
TAP	13	96	7
TAP	13	192	5
TAP	13	288	0
TAP	13	288	1
TAP	14	0	4
TAP	14	96	0
TAP	14	96	6
TAP	14	192	5
TAP	14	288	1
TAP	14	288	7
TAP	15	0	4
TAP	15	96	5
TAP	15	96	7
TAP	15	192	5
TAP	15	288	0
TAP	15	288	2
TAP	16	0	4
STR	16	96	6
SI_	16	96	6	96	48	2
TAP	16	96	7
TAP	17	0	0
TAP	17	0	1
TAP	17	96	2
TAP	17	96	7
TAP	17	192	1
TAP	17	240	0
TAP	17	288	1
TAP	18	0	6
TAP	18	0	7
TAP	18	96	0
TAP	18	96	5
TAP	18	192	6
TAP	18	240	7
TAP	18	288	6
TAP	19	0	3
TAP	19	0	4
TAP	19	96	2
TAP	19	96	5
TAP	19	192	3
TAP	19	240	4
TAP	19	288	3
TAP	20	0	0
TAP	20	0	1
BRK	20	96	6
BRK	20	192	6
TAP	20	240	2
TAP	20	288	0
STR	20	336	1
SV_	20	336	1	96	48	6
TAP	21	240	5
TAP	21	288	7
STR	21	336	6
SV_	21	336	6	96	48	1
TAP	22	240	3
TAP	22	288	4
TAP	22	336	2
TAP	22	336	5
BRK	23	96	0
BRK	23	96	7
BRK	23	240	0
BRK	23	240	1
BRK	24	0	6
BRK	24	0	7
TAP	24	192	0
TAP	24	192	7
TAP	24	288	1
TAP	24	288	6
TAP	25	0	2
TAP	25	96	3
TAP	25	192	4
TAP	25	288	3
TAP	25	288	5
TAP	26	0	2
TAP	26	96	6
TAP	26	192	1
TAP	26	192	7
TAP	26	288	0
TAP	26	288	6
TAP	27	0	5
TAP	27	96	4
TAP	27	192	3
TAP	27	288	2
TAP	27	288	4
TAP	28	0	5
TAP	28	96	1
TAP	28	192	0
TAP	28	192	6
TAP	28	288	1
TAP	28	288	7
TAP	29	0	6
TAP	29	96	7
TAP	29	192	0
TAP	29	288	1
TAP	29	288	7
TAP	30	0	6
TAP	30	96	2
TAP	30	96	5
TAP	30	192	3
TAP	30	240	4
TAP	30	288	3
TAP	31	0	2
TAP	31	0	5
TAP	31	96	1
TAP	31	96	6
TAP	31	192	7
TAP	31	240	7
TAP	31	336	0
STR	32	0	0
SSL	32	0	0	96	192	4
HLD	33	0	5	96
HLD	33	96	4	96
TAP	33	192	3
TAP	33	240	2
TAP	33	288	3
TAP	33	336	2
TAP	34	0	3
BRK	34	96	0
BRK	34	96	1
BRK	34	192	6
BRK	34	192	7
HLD	35	0	2	96
HLD	35	96	3	96
TAP	35	192	4
TAP	35	240	5
TAP	35	288	4
TAP	35	336	5
TAP	36	0	4
BRK	36	96	6
BRK	36	96	7
BRK	36	192	0
BRK	36	192	1
HLD	37	0	6	96
HLD	37	96	7	96
TAP	37	192	0
TAP	37	240	1
TAP	37	288	7
TAP	37	336	2
TAP	38	0	0
BRK	38	96	2
BRK	38	96	3
BRK	38	192	6
BRK	38	192	7
HLD	39	0	1	96
HLD	39	96	0	96
TAP	39	192	7
TAP	39	240	6
TAP	39	288	0
TAP	39	336	5
TAP	40	0	7
BRK	40	96	4
BRK	40	96	5
BRK	40	192	0
BRK	40	192	1
TAP	41	0	0
TAP	41	0	4
TAP	41	96	1
TAP	41	96	5
TAP	41	192	2
TAP	41	192	6
TAP	41	288	3
TAP	41	288	7
TAP	42	0	0
TAP	42	0	2
TAP	42	96	4
TAP	42	96	6
TAP	42	192	3
TAP	42	192	7
BRK	42	288	1
BRK	42	288	5
STR	43	0	0
SUR	43	0	0	96	288	3
TAP	44	192	2
TAP	44	192	6
TAP	44	288	0
TAP	44	288	4
TAP	45	0	6
TAP	45	48	7
TAP	45	96	6
TAP	45	192	1
TAP	45	240	0
TAP	45	288	1
TAP	46	0	5
TAP	46	48	4
TAP	46	96	5
TAP	46	192	2
TAP	46	240	3
TAP	46	288	2
STR	47	0	5
SI_	47	0	5	96	48	1
STR	47	192	2
SI_	47	192	2	96	48	6
TAP	48	0	4
STR	48	96	4
SI_	48	96	4	96	48	7
HLD	49	0	2	96
HLD	49	96	3	96
HLD	49	192	4	96
TAP	49	288	5
HLD	50	0	6	96
HLD	50	96	7	96
HLD	50	192	0	96
TAP	50	288	1
STR	51	0	6
SUL	51	0	6	96	72	2
STR	51	192	1
SUR	51	192	1	96	72	5
TAP	52	0	7
TAP	52	48	0
TAP	52	96	7
TAP	52	144	0
BRK	52	192	0
BRK	52	192	7
HLD	52	336	0	96
TAP	53	48	7
TAP	53	96	0
TAP	53	144	7
TAP	53	192	1
TAP	53	240	6
TAP	53	288	1
TAP	53	336	6
HLD	54	0	2	96
HLD	54	96	3	96
TAP	54	192	4
TAP	54	240	5
TAP	54	288	4
HLD	54	336	5	96
TAP	55	48	3
TAP	55	96	4
TAP	55	144	2
TAP	55	192	5
TAP	55	240	1
TAP	55	288	6
TAP	56	0	0
TAP	56	0	7
BRK	56	96	1
BRK	56	192	1
TAP	56	240	5
TAP	56	288	7
STR	56	336	6
SUL	56	336	6	96	96	1
TAP	57	240	2
TAP	57	288	0
STR	57	336	1
SUL	57	336	1	96	96	4
TAP	58	240	7
TAP	58	288	0
TAP	58	336	1
TAP	58	336	6
STR	59	96	0
SCR	59	96	0	96	96	3
STR	59	96	4
SCR	59	96	4	96	96	7
STR	60	0	3
SV_	60	0	3	96	96	0
STR	60	0	7
SI_	60	0	7	96	96	4
HLD	60	336	5	96
TAP	61	48	4
TAP	61	96	5
TAP	61	144	4
TAP	61	192	5
TAP	61	240	2
TAP	61	288	3
TAP	61	336	2
TAP	62	0	0
TAP	62	0	1
TAP	62	96	6
TAP	62	96	7
TAP	62	192	3
TAP	62	240	5
TAP	62	288	3
HLD	62	336	5	96
TAP	63	48	1
TAP	63	96	0
TAP	63	144	1
TAP	63	192	6
TAP	63	240	7
HLD	63	288	6	96
TAP	64	0	7
BRK	64	96	5
BRK	64	192	5
TAP	64	240	1
TAP	64	288	3
STR	64	336	2
SUL	64	336	2	96	96	5
TAP	65	240	6
TAP	65	288	4
STR	65	336	5
SUL	65	336	5	96	96	0
TAP	66	240	4
TAP	66	288	3
TAP	66	336	2
TAP	66	336	5
STR	67	96	5
SV_	67	96	5	96	72	2
STR	67	240	1
SCL	67	240	1	96	72	6
STR	68	0	4
SUR	68	0	4	96	192	7
TAP	69	0	3
TAP	69	96	2
TAP	69	96	3
TAP	69	192	4
TAP	69	288	4
TAP	69	288	5
TAP	70	0	3
TAP	70	96	2
TAP	70	96	4
TAP	70	192	3
TAP	70	192	5
TAP	70	288	4
TAP	70	288	6
TAP	71	0	7
TAP	71	96	6
TAP	71	96	7
TAP	71	192	0
TAP	71	288	0
TAP	71	288	1
TAP	72	0	7
TAP	72	96	0
TAP	72	96	6
TAP	72	192	1
TAP	72	192	7
TAP	72	288	0
TAP	72	288	2
TAP	73	0	3
TAP	73	0	4
TAP	73	96	2
TAP	73	96	5
TAP	73	192	1
TAP	73	192	6
TAP	73	288	0
TAP	73	288	7
TAP	74	0	0
TAP	74	48	7
TAP	74	96	1
TAP	74	192	7
TAP	74	240	0
TAP	74	288	6
TAP	75	0	1
TAP	75	0	7
TAP	75	96	0
TAP	75	96	6
TAP	75	192	5
TAP	75	240	4
TAP	75	336	2
TAP	76	0	3
TAP	76	144	1
TAP	76	144	6
TAP	76	192	2
TAP	76	240	5
TAP	76	288	3
TAP	76	336	4
BRK	77	96	0
BRK	77	96	7

T_REC_TAP	280
T_REC_BRK	34
T_REC_XTP	0
T_REC_HLD	21
T_REC_XHO	0
T_REC_STR	22
T_REC_BST	0
T_REC_XST	0
T_REC_TTP	0
T_REC_THO	0
T_REC_SLD	22
T_REC_ALL	379
T_NUM_TAP	302
T_NUM_BRK	34
T_NUM_HLD	21
T_NUM_SLD	22
T_NUM_ALL	379
T_JUDGE_TAP	336
T_JUDGE_HLD	42
T_JUDGE_SLD	22
T_JUDGE_ALL	400
TTM_EACHPAIRS	81
TTM_SCR_TAP	151000
TTM_SCR_BRK	88400
TTM_SCR_HLD	21000
TTM_SCR_SLD	33000
TTM_SCR_ALL	293400
TTM_SCR_S	281300
TTM_SCR_SS	290000
TTM_RAT_ACV	10117

