VERSION	0.00.00	1.03.00
FES_MODE	0
BPM_DEF	185.000	185.000	185.000	185.000
MET_DEF	4	4
RESOLUTION	384
CLK_DEF	384
COMPATIBLE_CODE	MA2

BPM	0	0	185.000
MET	0	0	4	4

TAP	9	0	3
TAP	9	192	4
TAP	10	0	3
TAP	10	192	4
TAP	11	0	3
TAP	11	192	4
TAP	12	0	3
TAP	12	96	3
TAP	12	192	3
TAP	13	0	2
TAP	13	192	5
TAP	14	0	2
TAP	14	192	5
TAP	15	0	2
TAP	15	192	5
TAP	16	0	2
TAP	16	96	2
TAP	16	192	2
TAP	17	0	1
TAP	17	96	1
TAP	17	192	2
TAP	17	288	2
TAP	18	0	3
TAP	18	96	3
TAP	18	192	3
TAP	19	0	5
TAP	19	96	5
TAP	19	192	6
TAP	19	288	6
TAP	20	0	7
TAP	20	96	0
STR	20	192	0
SI_	20	192	0	96	144	3
STR	21	240	4
SI_	21	240	4	96	144	7
TAP	23	96	0
TAP	23	96	7
TAP	23	240	0
TAP	23	240	1
TAP	24	0	6
TAP	24	0	7
STR	24	192	0
SSL	24	192	0	96	480	4
TAP	27	0	5
TAP	27	96	6
TAP	27	192	7
TAP	27	288	0
TAP	28	0	1
TAP	28	96	2
TAP	28	192	3
TAP	28	192	4
TAP	29	0	2
TAP	29	96	1
TAP	29	192	0
TAP	29	288	7
TAP	30	0	6
TAP	30	96	5
TAP	30	192	3
TAP	30	192	4
TAP	31	0	3
TAP	31	0	4
TAP	31	96	2
TAP	31	96	5
TAP	31	192	1
TAP	31	192	6
STR	31	288	0
SI_	31	288	0	96	192	3
STR	31	288	7
SI_	31	288	7	96	192	4
TAP	33	0	5
TAP	33	96	5
TAP	33	192	4
TAP	33	288	4
TAP	34	0	3
TAP	34	0	6
TAP	34	96	4
TAP	34	96	5
BRK	34	192	4
BRK	34	192	5
TAP	35	0	2
TAP	35	96	2
TAP	35	192	3
TAP	35	288	3
TAP	36	0	1
TAP	36	0	4
TAP	36	96	2
TAP	36	96	3
BRK	36	192	2
BRK	36	192	3
TAP	37	0	1
TAP	37	96	1
TAP	37	192	0
TAP	37	288	0
TAP	38	0	2
TAP	38	0	7
TAP	38	96	0
TAP	38	96	1
BRK	38	192	0
BRK	38	192	1
TAP	39	0	6
TAP	39	96	6
TAP	39	192	7
TAP	39	288	7
TAP	40	0	0
TAP	40	0	5
TAP	40	96	6
TAP	40	96	7
BRK	40	192	6
BRK	40	192	7
TAP	41	0	0
TAP	41	0	7
TAP	41	192	1
TAP	41	192	6
TAP	42	0	2
TAP	42	0	5
TAP	42	96	2
TAP	42	96	5
TAP	42	192	2
TAP	42	192	5
BRK	42	288	3
BRK	42	288	4
HLD	44	192	0	96
HLD	44	192	7	96
TAP	45	0	6
TAP	45	96	6
TAP	45	192	5
TAP	45	288	5
TAP	46	0	4
TAP	46	96	4
TAP	46	192	3
TAP	46	288	3
TAP	47	0	2
TAP	47	96	2
TAP	47	192	1
TAP	47	288	1
TAP	48	0	0
TAP	48	96	7
TAP	48	192	0
TAP	48	192	7
TAP	49	0	0
TAP	49	96	0
TAP	49	192	7
TAP	49	288	7
TAP	50	0	1
TAP	50	96	1
TAP	50	192	6
TAP	50	288	6
TAP	51	0	0
TAP	51	0	7
TAP	51	192	0
TAP	51	192	7
TAP	52	0	1
TAP	52	0	6
TAP	52	96	2
TAP	52	96	5
TAP	52	192	3
TAP	52	192	4
TAP	53	0	3
TAP	53	96	3
TAP	53	192	2
TAP	53	288	2
TAP	54	0	1
TAP	54	96	1
TAP	54	192	0
TAP	55	0	7
TAP	55	96	7
TAP	55	192	6
TAP	55	288	5
TAP	56	0	4
TAP	56	96	3
STR	56	192	3
SI_	56	192	3	96	144	0
STR	57	240	7
SI_	57	240	7	96	144	4
STR	59	96	4
SCR	59	96	4	96	384	3
TAP	61	0	4
TAP	61	96	4
TAP	61	192	5
TAP	61	288	5
TAP	62	0	6
TAP	62	96	6
TAP	62	192	7
TAP	63	0	0
TAP	63	96	0
TAP	63	192	1
TAP	63	288	2
TAP	64	0	3
TAP	64	96	4
STR	64	192	4
SI_	64	192	4	96	144	7
STR	65	240	0
SI_	65	240	0	96	144	3
TAP	67	96	2
TAP	67	96	5
TAP	67	240	1
TAP	67	240	6
TAP	68	0	0
TAP	68	0	7
STR	68	192	7
SUL	68	192	7	96	480	4
TAP	71	0	3
TAP	71	96	2
TAP	71	192	1
TAP	71	288	0
TAP	72	0	1
TAP	72	96	2
TAP	72	192	3
TAP	72	192	4
TAP	73	0	4
TAP	73	96	5
TAP	73	192	6
TAP	73	288	7
TAP	74	0	6
TAP	74	96	5
TAP	74	192	3
TAP	74	192	4
TAP	75	0	4
TAP	75	96	5
TAP	75	192	3
TAP	75	288	2
STR	76	0	3
SCL	76	0	3	96	384	0
STR	76	0	4
SCR	76	0	4	96	384	7

T_REC_TAP	187
T_REC_BRK	10
T_REC_XTP	0
T_REC_HLD	2
T_REC_XHO	0
T_REC_STR	13
T_REC_BST	0
T_REC_XST	0
T_REC_TTP	0
T_REC_THO	0
T_REC_SLD	13
T_REC_ALL	225
T_NUM_TAP	200
T_NUM_BRK	10
T_NUM_HLD	2
T_NUM_SLD	13
T_NUM_ALL	225
T_JUDGE_TAP	210
T_JUDGE_HLD	4
T_JUDGE_SLD	13
T_JUDGE_ALL	227
TTM_EACHPAIRS	40
TTM_SCR_TAP	100000
TTM_SCR_BRK	26000
TTM_SCR_HLD	2000
TTM_SCR_SLD	19500
TTM_SCR_ALL	147500
TTM_SCR_S	142150
TTM_SCR_SS	146500
TTM_RAT_ACV	10068

