VERSION	0.00.00	1.03.00
FES_MODE	0
BPM_DEF	185.000	185.000	185.000	185.000
MET_DEF	4	4
RESOLUTION	384
CLK_DEF	384
COMPATIBLE_CODE	MA2

BPM	0	0	185.000
MET	0	0	4	4

TAP	9	0	3
TAP	9	192	3
TAP	10	0	3
TAP	10	192	3
TAP	11	0	2
TAP	11	192	2
TAP	12	0	2
TAP	12	96	2
TAP	12	192	2
TAP	13	0	4
TAP	13	192	4
TAP	14	0	4
TAP	14	192	4
TAP	15	0	5
TAP	15	192	5
TAP	16	0	5
TAP	16	96	5
TAP	16	192	5
TAP	17	0	4
TAP	17	192	3
TAP	18	0	2
TAP	18	96	2
TAP	18	192	2
TAP	19	0	4
TAP	19	192	5
TAP	20	0	6
TAP	20	0	7
TAP	21	0	0
TAP	21	0	1
TAP	21	192	0
TAP	21	192	1
TAP	22	0	6
TAP	22	0	7
TAP	22	192	6
TAP	22	192	7
STR	23	0	3
SI_	23	0	3	96	288	0
HLD	25	0	6	384
HLD	27	0	7	384
HLD	29	0	0	384
TAP	31	0	1
TAP	31	192	1
BRK	32	0	0
BRK	32	0	7
TAP	33	0	2
TAP	33	192	3
TAP	34	0	2
TAP	34	0	4
TAP	35	0	5
TAP	35	192	4
TAP	36	0	3
TAP	36	0	5
TAP	37	0	6
TAP	37	192	7
TAP	38	0	0
TAP	38	0	6
TAP	39	0	1
TAP	39	192	0
TAP	40	0	1
TAP	40	0	7
TAP	41	0	0
TAP	41	192	0
TAP	42	0	7
TAP	42	96	7
TAP	42	192	7
TAP	43	0	1
TAP	43	0	6
TAP	45	0	2
TAP	45	192	3
TAP	46	0	4
TAP	46	192	5
TAP	47	0	6
TAP	47	192	7
TAP	48	0	0
TAP	48	96	7
TAP	48	192	0
TAP	48	192	7
TAP	49	0	2
TAP	49	192	2
TAP	50	0	5
TAP	50	192	5
TAP	51	0	2
TAP	51	0	3
TAP	51	192	4
TAP	51	192	5
TAP	52	0	6
TAP	52	0	7
TAP	52	96	6
TAP	52	96	7
TAP	52	192	6
TAP	52	192	7
TAP	53	0	0
TAP	53	96	0
TAP	53	192	0
TAP	54	0	1
TAP	54	96	1
TAP	54	192	1
TAP	55	0	7
TAP	55	96	7
TAP	55	192	7
TAP	56	0	6
TAP	56	0	7
TAP	57	0	4
TAP	57	0	5
TAP	57	192	4
TAP	57	192	5
TAP	58	0	2
TAP	58	0	3
TAP	58	192	2
TAP	58	192	3
STR	59	0	3
SI_	59	0	3	96	288	0
TAP	61	0	7
TAP	61	96	7
TAP	61	192	7
TAP	62	0	6
TAP	62	96	6
TAP	62	192	6
TAP	63	0	0
TAP	63	96	0
TAP	63	192	0
TAP	64	0	0
TAP	64	0	1
HLD	65	0	2	192
HLD	65	0	3	192
HLD	66	0	4	192
HLD	66	0	5	192
STR	67	0	4
SI_	67	0	4	96	288	7
BRK	69	0	0
TAP	71	0	7
TAP	71	192	6
TAP	72	0	5
TAP	72	96	5
TAP	72	192	5
TAP	73	0	2
TAP	73	96	2
TAP	73	192	3
TAP	74	0	5
TAP	74	96	5
TAP	74	192	4
TAP	75	0	3
TAP	75	96	3
TAP	75	192	2
TAP	76	0	0
TAP	76	0	7
TAP	77	96	0
TAP	77	96	7

T_REC_TAP	132
T_REC_BRK	3
T_REC_XTP	0
T_REC_HLD	7
T_REC_XHO	0
T_REC_STR	3
T_REC_BST	0
T_REC_XST	0
T_REC_TTP	0
T_REC_THO	0
T_REC_SLD	3
T_REC_ALL	148
T_NUM_TAP	135
T_NUM_BRK	3
T_NUM_HLD	7
T_NUM_SLD	3
T_NUM_ALL	148
T_JUDGE_TAP	138
T_JUDGE_HLD	40
T_JUDGE_SLD	3
T_JUDGE_ALL	181
TTM_EACHPAIRS	27
TTM_SCR_TAP	67500
TTM_SCR_BRK	7800
TTM_SCR_HLD	7000
TTM_SCR_SLD	4500
TTM_SCR_ALL	86800
TTM_SCR_S	83950
TTM_SCR_SS	86500
TTM_RAT_ACV	10034

