VERSION	0.00.00	1.03.00
FES_MODE	0
BPM_DEF	135.000	135.000	135.000	135.000
MET_DEF	4	4
RESOLUTION	384
CLK_DEF	384
COMPATIBLE_CODE	MA2

BPM	0	0	135.000
MET	0	0	4	4

HLD	1	0	3	96
STR	1	0	6
SCR	1	0	6	96	48	2
TAP	1	173	4
TAP	1	221	5
TAP	1	269	6
TAP	1	288	3
TAP	1	336	2
TAP	1	336	3
STR	2	0	1
SCL	2	0	1	96	48	5
HLD	2	0	4	96
TAP	2	173	3
TAP	2	221	2
TAP	2	269	1
TAP	2	288	4
TAP	2	336	4
TAP	2	336	5
BRK	3	0	0
STR	4	0	0
SCR	4	0	0	96	576	7
STR	4	0	7
SCL	4	0	7	96	576	0
STR	6	0	0
SUL	6	0	0	96	48	3
TAP	6	173	2
TAP	6	173	4
TAP	6	221	3
TAP	6	221	5
TAP	6	269	6
TAP	6	288	7
TAP	6	336	2
TAP	6	336	3
STR	7	0	7
SUR	7	0	7	96	48	4
TAP	7	173	3
TAP	7	173	5
TAP	7	221	2
TAP	7	221	4
TAP	7	269	1
TAP	7	288	0
TAP	7	336	4
TAP	7	336	5
STR	8	0	0
SUL	8	0	0	96	48	3
STR	8	0	7
SUR	8	0	7	96	48	4
TAP	8	173	1
TAP	8	173	5
TAP	8	240	6
TAP	8	288	7
TAP	8	336	0
STR	9	0	1
SUL	9	0	1	96	48	3
STR	9	0	6
SUR	9	0	6	96	48	4
TAP	9	192	2
TAP	9	192	5
TAP	9	288	0
TAP	9	288	7
STR	10	0	2
SUL	10	0	2	96	48	5
TAP	10	173	4
TAP	10	173	6
TAP	10	221	3
TAP	10	221	5
TAP	10	269	2
TAP	10	288	6
TAP	10	336	0
TAP	10	336	4
STR	11	0	5
SUR	11	0	5	96	48	2
TAP	11	173	1
TAP	11	173	3
TAP	11	221	2
TAP	11	221	4
TAP	11	269	5
TAP	11	288	1
TAP	11	336	3
TAP	11	336	7
STR	12	0	2
SUL	12	0	2	96	48	5
STR	12	0	6
SUL	12	0	6	96	48	1
TAP	12	173	0
TAP	12	173	4
TAP	12	240	3
TAP	12	288	2
TAP	12	336	1
STR	13	0	0
SUL	13	0	0	96	48	2
STR	13	0	7
SUR	13	0	7	96	48	5
TAP	13	192	3
TAP	13	192	4
TAP	13	288	1
TAP	13	288	6
TAP	14	0	3
TAP	14	0	5
TAP	14	72	1
TAP	14	72	4
TAP	14	144	2
TAP	14	144	6
STR	14	216	0
SI_	14	216	0	96	48	4
TAP	14	216	5
BRK	14	288	7
HLD	15	0	3	96
TAP	15	96	1
HLD	15	173	6	115
TAP	15	240	5
TAP	15	288	7
HLD	16	0	4	96
TAP	16	96	6
HLD	16	173	1	115
TAP	16	240	2
TAP	16	288	0
STR	17	48	1
SI_	17	48	1	96	48	5
STR	17	96	5
SI_	17	96	5	96	48	1
TAP	17	144	1
TAP	17	173	7
TAP	17	240	3
TAP	17	336	1
TAP	17	336	3
TAP	18	0	0
TAP	18	29	4
TAP	18	77	1
TAP	18	77	5
TAP	18	125	2
TAP	18	125	6
STR	18	173	3
SCL	18	173	3	96	48	0
STR	18	173	7
SCL	18	173	7	96	48	4
TAP	18	240	3
TAP	18	240	7
TAP	18	336	5
HLD	19	0	2	96
TAP	19	96	0
HLD	19	173	7	115
TAP	19	240	6
TAP	19	288	0
HLD	20	0	5	96
TAP	20	96	7
HLD	20	173	0	115
TAP	20	240	1
TAP	20	288	7
STR	21	48	6
SI_	21	48	6	96	48	2
STR	21	96	2
SI_	21	96	2	96	48	6
TAP	21	144	6
TAP	21	173	0
TAP	21	240	4
TAP	21	336	4
TAP	21	336	6
TAP	22	0	7
TAP	22	29	3
TAP	22	77	2
TAP	22	77	6
TAP	22	125	1
TAP	22	125	5
STR	22	173	0
SCR	22	173	0	96	48	3
STR	22	173	4
SCR	22	173	4	96	48	7
TAP	22	240	0
TAP	22	240	4
TAP	22	336	0
STR	23	0	1
SCR	23	0	1	96	96	4
STR	23	96	4
SUR	23	96	4	96	96	3
STR	23	192	3
SCR	23	192	3	96	96	6
STR	23	288	6
SUR	23	288	6	96	96	5
STR	24	0	5
SCR	24	0	5	96	96	0
STR	24	96	0
SUR	24	96	0	96	96	7
STR	24	192	7
SCR	24	192	7	96	77	3
TAP	24	288	4
STR	25	0	5
SCL	25	0	5	96	48	2
TAP	25	144	7
STR	25	192	6
SCL	25	192	6	96	77	2
TAP	25	336	0
STR	26	0	7
SCL	26	0	7	96	96	2
TAP	26	192	1
TAP	26	240	2
TAP	26	288	3
TAP	26	336	4
STR	27	0	6
SCL	27	0	6	96	96	3
STR	27	96	3
SUL	27	96	3	96	96	4
STR	27	192	4
SCL	27	192	4	96	96	1
STR	27	288	1
SUL	27	288	1	96	96	2
STR	28	0	2
SCL	28	0	2	96	96	7
STR	28	96	7
SUL	28	96	7	96	96	0
STR	28	192	0
SCL	28	192	0	96	77	4
TAP	28	288	3
STR	29	0	2
SCR	29	0	2	96	48	5
TAP	29	144	0
STR	29	192	1
SCR	29	192	1	96	77	5
TAP	29	336	7
STR	30	0	0
SCR	30	0	0	96	96	5
TAP	30	192	6
TAP	30	240	5
TAP	30	288	4
TAP	30	336	3
HLD	31	0	1	77
TAP	31	0	2
TAP	31	77	7
TAP	31	144	5
HLD	31	144	6	77
TAP	31	221	0
TAP	31	288	7
TAP	31	336	0
TAP	31	336	7
HLD	32	0	5	77
TAP	32	0	6
TAP	32	77	3
TAP	32	144	1
HLD	32	144	2	77
TAP	32	221	4
TAP	32	288	3
TAP	32	336	3
TAP	32	336	4
STR	33	0	1
SV_	33	0	1	96	48	7
STR	33	0	6
SI_	33	0	6	96	48	2
TAP	33	173	0
TAP	33	173	5
TAP	33	221	2
TAP	33	221	7
TAP	33	269	3
TAP	33	288	4
TAP	33	336	1
TAP	33	336	6
STR	34	0	2
SV_	34	0	2	96	48	4
STR	34	0	5
SI_	34	0	5	96	48	1
TAP	34	173	3
TAP	34	173	6
TAP	34	221	1
TAP	34	221	4
TAP	34	269	3
STR	34	288	7
SI_	34	288	7	96	48	3
TAP	34	336	0
TAP	34	336	6
TAP	35	0	7
TAP	35	144	4
TAP	35	192	4
TAP	35	192	5
TAP	35	240	3
TAP	35	288	2
TAP	35	288	3
TAP	35	336	6
TAP	36	0	6
TAP	36	0	7
TAP	36	48	1
TAP	36	96	0
TAP	36	96	1
TAP	36	144	7
STR	36	192	0
SCL	36	192	0	96	48	5
STR	36	192	7
SCR	36	192	7	96	48	2
TAP	36	288	0
TAP	36	288	7
STR	37	0	1
SI_	37	0	1	96	48	5
STR	37	0	6
SV_	37	0	6	96	48	0
TAP	37	173	2
TAP	37	173	7
TAP	37	221	0
TAP	37	221	5
TAP	37	269	4
TAP	37	288	3
TAP	37	336	1
TAP	37	336	6
STR	38	0	2
SI_	38	0	2	96	48	6
STR	38	0	5
SV_	38	0	5	96	48	3
TAP	38	173	1
TAP	38	173	4
TAP	38	221	3
TAP	38	221	6
TAP	38	269	4
STR	38	288	0
SI_	38	288	0	96	48	4
TAP	38	336	1
TAP	38	336	7
TAP	39	0	0
TAP	39	144	3
TAP	39	192	2
TAP	39	192	3
TAP	39	240	4
TAP	39	288	4
TAP	39	288	5
TAP	39	336	3
TAP	40	0	3
TAP	40	0	4
STR	40	96	1
SI_	40	96	1	96	48	3
TAP	40	144	6
TAP	40	192	1
STR	40	192	7
SI_	40	192	7	96	48	5
STR	40	288	0
SI_	40	288	0	96	48	4
TAP	40	288	7
BRK	41	0	0
BRK	41	0	4
TAP	41	173	0
TAP	41	173	5
TAP	41	221	2
TAP	41	221	7
TAP	41	269	3
TAP	41	288	4
TAP	41	336	1
TAP	41	336	6
STR	42	0	2
SI_	42	0	2	96	48	6
STR	42	0	5
SI_	42	0	5	96	48	1
TAP	42	173	3
TAP	42	173	6
TAP	42	221	1
TAP	42	221	4
TAP	42	269	5
STR	42	288	1
SI_	42	288	1	96	48	5
TAP	42	336	0
TAP	42	336	2
TAP	43	0	1
TAP	43	144	4
TAP	43	192	4
TAP	43	192	5
TAP	43	240	3
TAP	43	288	2
TAP	43	288	3
TAP	43	336	0
TAP	44	0	0
TAP	44	0	6
TAP	44	48	7
TAP	44	96	1
TAP	44	96	7
TAP	44	144	0
TAP	44	192	1
TAP	44	192	7
TAP	44	240	2
TAP	44	240	6
TAP	44	288	3
TAP	44	288	5
TAP	44	336	4
STR	45	0	2
SI_	45	0	2	96	48	6
STR	45	0	5
SV_	45	0	5	96	48	3
TAP	45	173	1
TAP	45	173	4
TAP	45	221	3
TAP	45	221	6
TAP	45	269	7
TAP	45	288	0
TAP	45	336	2
TAP	45	336	5
STR	46	0	1
SI_	46	0	1	96	48	5
STR	46	0	6
SV_	46	0	6	96	48	0
TAP	46	173	2
TAP	46	173	7
TAP	46	221	0
TAP	46	221	5
TAP	46	269	1
STR	46	288	6
SI_	46	288	6	96	48	2
TAP	46	336	5
TAP	46	336	7
TAP	47	0	6
TAP	47	144	3
TAP	47	192	2
TAP	47	192	3
TAP	47	240	4
TAP	47	288	4
TAP	47	288	5
TAP	47	336	2
TAP	48	0	1
TAP	48	0	2
TAP	48	48	5
TAP	48	96	5
TAP	48	96	6
TAP	48	144	1
TAP	48	144	4
STR	48	192	2
SCR	48	192	2	96	48	5
STR	48	192	6
SCR	48	192	6	96	48	1
TAP	48	288	2
TAP	48	288	6
TAP	49	0	0
TAP	49	0	4
TAP	49	48	2
TAP	49	48	6
STR	49	96	1
SCL	49	96	1	96	48	6
STR	49	96	5
SCL	49	96	5	96	48	2
BRK	49	192	1
BRK	49	192	5
BRK	49	256	3
BRK	49	256	7
BRK	49	320	0
BRK	49	320	4
HLD	50	96	1	144
HLD	50	192	2	144
HLD	50	288	3	144
HLD	51	0	6	144
HLD	51	96	5	144
HLD	51	192	4	144
HLD	51	288	0	48
HLD	52	0	3	96
STR	52	0	6
SCR	52	0	6	96	48	2
TAP	52	173	4
TAP	52	221	5
TAP	52	269	6
TAP	52	288	3
TAP	52	336	2
TAP	52	336	3
STR	53	0	1
SCL	53	0	1	96	48	5
HLD	53	0	4	96
TAP	53	173	3
TAP	53	221	2
TAP	53	269	1
TAP	53	288	4
TAP	53	336	4
TAP	53	336	5
BRK	54	0	0
HLD	54	96	6	144
HLD	54	192	5	144
HLD	54	288	4	144
HLD	55	0	1	144
HLD	55	96	2	144
HLD	55	192	3	144
HLD	55	288	7	48
STR	56	0	1
SCL	56	0	1	96	48	5
HLD	56	0	4	96
TAP	56	173	3
TAP	56	221	2
TAP	56	269	1
TAP	56	288	4
TAP	56	336	4
TAP	56	336	5
HLD	57	0	3	96
STR	57	0	6
SCR	57	0	6	96	48	2
TAP	57	173	4
TAP	57	221	5
TAP	57	269	6
TAP	57	288	3
TAP	57	336	2
TAP	57	336	3
BRK	58	0	7
HLD	58	96	0	144
HLD	58	192	2	96
HLD	58	288	4	48
HLD	58	336	3	96
HLD	59	0	7	144
HLD	59	96	5	144
HLD	59	192	3	144
HLD	59	288	0	48
STR	60	0	2
SCR	60	0	2	96	48	6
HLD	60	0	7	96
TAP	60	173	0
TAP	60	221	1
TAP	60	269	2
TAP	60	288	7
TAP	60	336	6
TAP	60	336	7
HLD	61	0	0	96
STR	61	0	5
SCL	61	0	5	96	48	1
TAP	61	173	7
TAP	61	221	6
TAP	61	269	5
TAP	61	288	0
TAP	61	336	0
TAP	61	336	1
TAP	62	0	3
TAP	62	0	4
HLD	62	96	7	144
HLD	62	192	5	96
HLD	62	288	3	48
HLD	62	336	4	96
HLD	63	0	0	144
HLD	63	96	2	144
HLD	63	192	4	144
HLD	63	288	7	48
HLD	64	0	0	96
STR	64	0	5
SCL	64	0	5	96	48	1
TAP	64	173	7
TAP	64	221	6
TAP	64	269	5
TAP	64	288	0
TAP	64	336	0
TAP	64	336	1
STR	65	0	2
SCR	65	0	2	96	48	6
HLD	65	0	7	96
TAP	65	173	0
TAP	65	221	1
TAP	65	269	2
TAP	65	288	7
TAP	65	336	6
TAP	65	336	7
STR	66	0	3
SUR	66	0	3	96	48	1
STR	66	0	4
SUL	66	0	4	96	48	6
TAP	66	173	2
TAP	66	221	5
TAP	66	269	0
TAP	66	288	7
TAP	66	336	1
TAP	66	336	6

T_REC_TAP	324
T_REC_BRK	12
T_REC_XTP	0
T_REC_HLD	52
T_REC_XHO	0
T_REC_STR	82
T_REC_BST	0
T_REC_XST	0
T_REC_TTP	0
T_REC_THO	0
T_REC_SLD	82
T_REC_ALL	552
T_NUM_TAP	406
T_NUM_BRK	12
T_NUM_HLD	52
T_NUM_SLD	82
T_NUM_ALL	552
T_JUDGE_TAP	418
T_JUDGE_HLD	122
T_JUDGE_SLD	82
T_JUDGE_ALL	622
TTM_EACHPAIRS	129
TTM_SCR_TAP	203000
TTM_SCR_BRK	31200
TTM_SCR_HLD	52000
TTM_SCR_SLD	123000
TTM_SCR_ALL	409200
TTM_SCR_S	395800
TTM_SCR_SS	408000
TTM_RAT_ACV	10029

