VERSION	0.00.00	1.03.00
FES_MODE	0
BPM_DEF	135.000	135.000	135.000	135.000
MET_DEF	4	4
RESOLUTION	384
CLK_DEF	384
COMPATIBLE_CODE	MA2

BPM	0	0	135.000
MET	0	0	4	4

HLD	1	0	0	96
TAP	1	96	7
TAP	1	168	0
TAP	1	216	7
TAP	1	264	1
TAP	1	288	6
HLD	2	0	7	96
TAP	2	96	0
TAP	2	168	6
TAP	2	216	1
TAP	2	264	7
TAP	2	288	0
STR	3	0	0
SCR	3	0	0	96	144	3
STR	3	0	7
SCL	3	0	7	96	144	4
STR	4	0	6
SCR	4	0	6	96	144	1
STR	5	0	2
SUR	5	0	2	96	192	5
STR	6	0	7
SI_	6	0	7	96	48	3
STR	6	192	1
SI_	6	192	1	96	48	5
STR	7	0	6
SI_	7	0	6	96	48	2
STR	7	192	0
SI_	7	192	0	96	48	4
TAP	8	0	2
TAP	8	0	6
TAP	8	96	2
TAP	8	96	6
HLD	8	168	0	72
HLD	8	168	4	72
STR	9	0	7
SCR	9	0	7	96	48	2
STR	9	192	3
SCR	9	192	3	96	48	6
STR	10	0	1
SI_	10	0	1	96	48	3
STR	10	192	0
SI_	10	192	0	96	48	4
STR	11	0	7
SI_	11	0	7	96	48	5
STR	11	192	6
SI_	11	192	6	96	48	2
TAP	12	0	1
TAP	12	0	5
TAP	12	96	1
TAP	12	96	5
HLD	12	168	3	72
HLD	12	168	7	72
STR	13	0	0
SCL	13	0	0	96	48	5
STR	13	192	4
SCL	13	192	4	96	48	1
TAP	14	0	0
TAP	14	0	4
TAP	14	72	1
TAP	14	72	5
TAP	14	144	2
TAP	14	144	6
TAP	14	216	3
TAP	14	216	7
BRK	14	288	1
BRK	14	288	6
HLD	15	0	0	96
HLD	15	0	7	96
TAP	15	240	1
TAP	15	288	0
TAP	15	336	7
TAP	16	0	6
TAP	16	48	7
TAP	16	96	0
TAP	16	144	1
TAP	16	192	5
TAP	16	240	4
TAP	16	288	3
TAP	17	48	0
TAP	17	48	7
TAP	17	96	3
TAP	17	96	4
TAP	17	168	2
TAP	17	168	3
TAP	17	240	4
TAP	17	240	5
TAP	17	336	3
TAP	17	336	4
TAP	18	0	1
TAP	18	0	6
TAP	18	72	7
TAP	18	120	0
TAP	18	168	0
TAP	18	168	7
TAP	18	240	2
TAP	18	240	5
TAP	18	336	0
HLD	19	0	7	96
TAP	19	96	0
TAP	19	240	5
TAP	19	288	4
TAP	19	336	3
TAP	20	0	2
TAP	20	48	3
TAP	20	96	4
TAP	20	144	5
TAP	20	192	1
TAP	20	240	0
TAP	20	288	7
TAP	21	48	3
TAP	21	48	4
TAP	21	96	0
TAP	21	96	7
TAP	21	168	6
TAP	21	168	7
TAP	21	240	0
TAP	21	240	1
TAP	21	336	0
TAP	21	336	7
TAP	22	0	2
TAP	22	0	5
TAP	22	72	2
TAP	22	120	5
TAP	22	168	3
TAP	22	168	4
BRK	22	240	1
BRK	22	240	6
TAP	22	336	1
STR	23	0	1
SCL	23	0	1	96	48	6
STR	23	192	6
SUL	23	192	6	96	48	1
STR	24	0	1
SUL	24	0	1	96	48	5
STR	24	192	5
SCL	24	192	5	96	48	2
HLD	25	0	1	192
HLD	25	192	6	144
TAP	25	336	0
TAP	26	0	7
TAP	26	48	0
TAP	26	96	7
BRK	26	144	0
TAP	26	192	7
TAP	26	240	6
TAP	26	288	0
TAP	26	336	1
STR	27	0	6
SCL	27	0	6	96	48	4
STR	27	192	1
SCR	27	192	1	96	48	3
TAP	28	0	2
TAP	28	0	5
TAP	28	96	1
TAP	28	96	6
STR	28	192	0
SI_	28	192	0	96	48	4
STR	28	192	7
SI_	28	192	7	96	48	3
TAP	29	0	2
TAP	29	72	3
TAP	29	144	5
TAP	29	192	4
TAP	29	288	1
TAP	29	288	6
STR	30	0	0
SCR	30	0	0	96	48	2
STR	30	192	7
SCL	30	192	7	96	48	5
TAP	31	0	3
TAP	31	0	4
TAP	31	96	0
TAP	31	96	7
TAP	31	192	1
TAP	31	192	6
TAP	31	288	2
TAP	31	288	5
STR	32	0	6
SI_	32	0	6	96	48	2
STR	32	0	7
SI_	32	0	7	96	48	2
STR	32	192	0
SI_	32	192	0	96	48	5
STR	32	192	1
SI_	32	192	1	96	48	5
BRK	33	0	0
BRK	33	96	7
TAP	33	168	0
TAP	33	168	1
TAP	33	216	0
TAP	33	216	1
TAP	33	264	2
TAP	33	288	7
TAP	34	0	7
TAP	34	96	0
TAP	34	168	6
TAP	34	168	7
TAP	34	216	6
TAP	34	216	7
TAP	34	264	5
TAP	34	288	0
STR	35	0	0
SI_	35	0	0	96	48	4
STR	35	0	7
SI_	35	0	7	96	48	3
STR	35	192	0
SI_	35	192	0	96	48	2
STR	35	192	7
SI_	35	192	7	96	48	5
STR	36	0	1
SUL	36	0	1	96	48	4
STR	36	192	6
SUR	36	192	6	96	48	3
TAP	37	0	2
TAP	37	96	5
TAP	37	168	2
TAP	37	168	3
TAP	37	216	2
TAP	37	216	3
TAP	37	264	1
TAP	37	288	4
TAP	38	0	4
TAP	38	96	3
TAP	38	168	4
TAP	38	168	5
TAP	38	216	4
TAP	38	216	5
TAP	38	264	6
TAP	38	288	3
STR	39	0	3
SCL	39	0	3	96	48	0
STR	39	0	4
SCR	39	0	4	96	48	7
TAP	39	192	1
TAP	39	192	6
TAP	39	288	0
TAP	39	288	7
HLD	40	0	1	96
HLD	40	96	3	96
HLD	40	192	5	96
TAP	40	288	7
BRK	41	0	1
STR	41	0	7
SI_	41	0	7	96	48	3
TAP	41	192	2
TAP	41	192	4
TAP	41	288	1
TAP	41	288	5
STR	42	0	0
SI_	42	0	0	96	48	4
TAP	42	0	6
STR	42	192	4
SI_	42	192	4	96	48	7
STR	42	288	3
SI_	42	288	3	96	48	0
TAP	43	144	7
TAP	43	192	0
TAP	43	240	6
TAP	43	288	1
TAP	43	336	7
TAP	44	0	0
TAP	44	0	7
TAP	44	48	0
TAP	44	48	7
TAP	44	96	0
TAP	44	96	7
TAP	44	144	0
TAP	44	144	7
TAP	44	192	0
TAP	44	192	7
TAP	44	240	1
TAP	44	240	6
TAP	44	288	2
TAP	44	288	5
TAP	44	336	3
TAP	44	336	4
STR	45	0	1
SI_	45	0	1	96	48	4
STR	45	0	6
SI_	45	0	6	96	48	3
TAP	45	192	2
TAP	45	192	3
TAP	45	288	4
TAP	45	288	5
TAP	46	0	2
STR	46	0	3
SI_	46	0	3	96	48	7
STR	46	192	1
SI_	46	192	1	96	48	5
STR	46	288	7
SI_	46	288	7	96	48	3
TAP	47	144	6
TAP	47	192	5
TAP	47	240	4
TAP	47	288	3
TAP	47	336	2
STR	48	0	1
SCL	48	0	1	96	96	6
STR	48	96	6
SCL	48	96	6	96	96	3
STR	48	192	3
SCL	48	192	3	96	96	0
STR	48	288	0
SSL	48	288	0	96	144	4
BRK	49	192	4
BRK	49	192	6
BRK	49	264	1
BRK	49	264	3
BRK	49	336	0
BRK	49	336	7
HLD	50	96	0	96
HLD	50	192	1	96
HLD	50	288	2	96
HLD	51	0	3	96
HLD	51	96	4	96
HLD	51	192	5	96
HLD	51	288	6	96
HLD	52	0	7	96
TAP	52	96	6
TAP	52	168	1
TAP	52	216	0
TAP	52	264	1
TAP	52	288	0
HLD	53	0	2	96
TAP	53	96	3
TAP	53	168	5
TAP	53	216	4
TAP	53	264	5
TAP	53	288	4
HLD	54	96	7	96
HLD	54	192	5	96
HLD	54	288	3	96
HLD	55	0	1	96
HLD	55	96	6	96
HLD	55	192	4	96
HLD	55	288	0	96
HLD	56	0	2	96
TAP	56	96	3
TAP	56	168	5
TAP	56	216	4
TAP	56	264	6
TAP	56	288	3
HLD	57	0	6	96
TAP	57	96	7
TAP	57	168	1
TAP	57	216	0
TAP	57	264	2
TAP	57	288	7
STR	58	0	0
SI_	58	0	0	96	48	4
STR	58	192	7
SI_	58	192	7	96	48	3
STR	59	0	1
SI_	59	0	1	96	48	5
STR	59	96	0
SI_	59	96	0	96	48	4
STR	59	192	7
SI_	59	192	7	96	48	3
HLD	60	0	6	96
TAP	60	96	5
TAP	60	168	2
TAP	60	216	3
TAP	60	264	1
TAP	60	288	4
HLD	61	0	1	96
TAP	61	96	2
TAP	61	168	5
TAP	61	216	4
TAP	61	264	6
TAP	61	288	3
STR	62	0	7
SI_	62	0	7	96	48	3
STR	62	192	0
SI_	62	192	0	96	48	4
STR	63	0	6
SI_	63	0	6	96	48	2
STR	63	96	7
SI_	63	96	7	96	48	3
STR	63	192	0
SI_	63	192	0	96	48	4
HLD	64	0	1	96
TAP	64	96	2
TAP	64	168	5
TAP	64	216	4
TAP	64	264	6
TAP	64	288	3
HLD	65	0	6	96
TAP	65	96	5
TAP	65	168	2
TAP	65	216	3
TAP	65	264	1
TAP	65	288	4
TAP	66	0	0
TAP	66	0	7
TAP	66	96	1
TAP	66	96	6
TAP	66	168	0
TAP	66	216	7
TAP	66	264	1
TAP	66	288	6
TAP	66	336	0
TAP	66	336	7

T_REC_TAP	230
T_REC_BRK	14
T_REC_XTP	0
T_REC_HLD	36
T_REC_XHO	0
T_REC_STR	61
T_REC_BST	0
T_REC_XST	0
T_REC_TTP	0
T_REC_THO	0
T_REC_SLD	61
T_REC_ALL	402
T_NUM_TAP	291
T_NUM_BRK	14
T_NUM_HLD	36
T_NUM_SLD	61
T_NUM_ALL	402
T_JUDGE_TAP	305
T_JUDGE_HLD	75
T_JUDGE_SLD	61
T_JUDGE_ALL	441
TTM_EACHPAIRS	74
TTM_SCR_TAP	145500
TTM_SCR_BRK	36400
TTM_SCR_HLD	36000
TTM_SCR_SLD	91500
TTM_SCR_ALL	309400
TTM_SCR_S	298800
TTM_SCR_SS	308000
TTM_RAT_ACV	10045

