VERSION	0.00.00	1.03.00
FES_MODE	0
BPM_DEF	135.000	135.000	135.000	135.000
MET_DEF	4	4
RESOLUTION	384
CLK_DEF	384
COMPATIBLE_CODE	MA2

BPM	0	0	135.000
MET	0	0	4	4

STR	1	0	0
SI_	1	0	0	96	192	4
STR	2	0	5
SI_	2	0	5	96	192	2
STR	3	0	1
SI_	3	0	1	96	192	6
STR	4	0	7
SCL	4	0	7	96	480	0
BRK	6	0	0
BRK	6	0	7
TAP	6	192	1
TAP	6	288	2
TAP	7	0	3
TAP	7	0	4
TAP	7	192	5
TAP	7	288	6
TAP	8	0	0
TAP	8	0	7
TAP	8	192	1
TAP	8	288	6
TAP	9	0	2
TAP	9	0	5
TAP	9	192	4
TAP	9	288	3
TAP	10	0	2
TAP	10	0	5
TAP	10	192	1
TAP	10	288	6
TAP	11	0	0
TAP	11	0	7
TAP	11	192	6
TAP	11	288	5
TAP	12	0	3
TAP	12	0	4
TAP	12	192	2
TAP	12	288	1
TAP	13	0	0
TAP	13	0	7
TAP	13	192	1
TAP	13	192	6
STR	13	288	0
SI_	13	288	0	96	144	3
STR	13	288	7
SI_	13	288	7	96	144	4
BRK	14	288	1
BRK	14	288	6
TAP	15	0	3
TAP	15	0	4
TAP	15	96	2
TAP	15	96	3
TAP	15	192	1
TAP	15	240	1
TAP	15	288	1
TAP	16	0	3
TAP	16	0	4
TAP	16	96	4
TAP	16	96	5
TAP	16	192	6
TAP	16	240	6
TAP	16	288	6
TAP	17	0	0
TAP	17	0	7
TAP	17	96	0
TAP	17	96	1
TAP	17	192	2
TAP	17	240	2
TAP	17	288	2
TAP	18	0	0
TAP	18	0	7
TAP	18	96	6
TAP	18	96	7
TAP	18	192	5
TAP	18	240	5
TAP	18	288	5
TAP	19	0	2
TAP	19	0	3
TAP	19	96	4
TAP	19	96	5
TAP	19	192	6
TAP	19	240	6
TAP	19	288	6
TAP	20	0	4
TAP	20	0	5
TAP	20	96	2
TAP	20	96	3
TAP	20	192	1
TAP	20	240	1
TAP	20	288	1
TAP	21	0	0
TAP	21	0	7
TAP	21	96	4
TAP	21	96	5
TAP	21	192	6
TAP	21	240	6
TAP	21	288	6
TAP	22	0	0
TAP	22	0	7
TAP	22	96	2
TAP	22	96	3
TAP	22	192	1
TAP	22	240	1
TAP	22	288	1
TAP	23	0	6
TAP	23	0	7
TAP	23	96	4
TAP	23	96	5
TAP	23	192	2
TAP	23	192	3
TAP	23	288	0
TAP	23	288	1
TAP	24	0	2
TAP	24	0	3
TAP	24	96	4
TAP	24	96	5
TAP	24	192	6
TAP	24	192	7
TAP	24	288	0
TAP	24	288	1
HLD	25	0	2	144
TAP	25	144	3
TAP	25	192	3
HLD	26	0	5	144
TAP	26	144	4
TAP	26	192	4
TAP	27	0	6
TAP	27	0	7
TAP	27	96	0
TAP	27	96	1
TAP	27	192	2
TAP	27	192	3
TAP	27	288	4
TAP	27	288	5
TAP	28	0	6
TAP	28	0	7
TAP	28	96	4
TAP	28	96	5
TAP	28	192	2
TAP	28	192	3
TAP	28	288	0
TAP	28	288	1
TAP	29	0	7
TAP	29	48	7
TAP	29	96	7
TAP	29	192	0
TAP	29	240	0
TAP	29	288	0
TAP	30	0	6
TAP	30	48	6
TAP	30	96	6
TAP	30	192	1
TAP	30	240	1
TAP	30	288	1
TAP	31	0	3
TAP	31	96	2
TAP	31	96	4
TAP	31	192	5
TAP	31	240	5
TAP	31	288	5
TAP	32	0	4
TAP	32	96	3
TAP	32	96	5
TAP	32	192	2
TAP	32	240	2
TAP	32	288	2
HLD	33	0	3	96
HLD	33	0	4	96
TAP	33	192	5
TAP	33	240	4
TAP	33	288	5
HLD	34	0	3	96
HLD	34	0	4	96
TAP	34	192	2
TAP	34	240	3
TAP	34	288	2
HLD	35	0	1	96
HLD	35	0	6	96
TAP	35	192	5
TAP	35	240	4
TAP	35	288	3
HLD	36	0	1	96
HLD	36	0	6	96
TAP	36	192	0
TAP	36	192	7
TAP	36	288	1
TAP	36	288	6
HLD	37	0	3	96
HLD	37	0	4	96
TAP	37	192	1
TAP	37	240	3
TAP	37	288	1
HLD	38	0	3	96
HLD	38	0	4	96
TAP	38	192	6
TAP	38	240	4
TAP	38	288	6
HLD	39	0	0	96
HLD	39	0	7	96
TAP	39	192	1
TAP	39	240	0
TAP	39	288	7
HLD	40	0	1	96
HLD	40	0	6	96
TAP	40	192	4
TAP	40	192	5
TAP	40	288	2
TAP	40	288	3
BRK	41	0	0
BRK	41	0	7
TAP	41	192	6
TAP	41	240	5
TAP	41	288	4
TAP	42	0	2
TAP	42	96	2
TAP	42	96	3
TAP	42	192	1
TAP	42	240	2
TAP	42	288	3
TAP	43	0	5
TAP	43	96	4
TAP	43	96	5
TAP	43	192	6
TAP	43	240	7
TAP	43	288	0
TAP	44	0	1
TAP	44	0	6
TAP	44	96	3
TAP	44	96	4
TAP	44	192	2
TAP	44	240	1
TAP	44	288	0
TAP	44	336	7
TAP	45	0	6
TAP	45	96	0
TAP	45	96	7
TAP	45	192	5
TAP	45	240	6
TAP	45	288	7
TAP	45	336	0
TAP	46	0	1
TAP	46	96	0
TAP	46	96	7
TAP	46	192	6
TAP	46	240	5
TAP	46	288	4
TAP	46	336	3
TAP	47	0	2
TAP	47	96	1
TAP	47	96	6
TAP	47	192	0
TAP	47	240	7
TAP	47	288	0
TAP	48	0	1
TAP	48	0	3
TAP	48	96	2
TAP	48	96	4
TAP	48	192	3
TAP	48	192	5
TAP	48	288	4
TAP	48	288	6
BRK	49	0	0
BRK	49	0	7
HLD	49	192	1	72
HLD	49	192	6	72
TAP	49	336	1
TAP	49	336	6
TAP	50	96	2
TAP	50	192	3
TAP	50	288	4
TAP	51	0	5
TAP	51	96	4
TAP	51	192	3
TAP	51	288	2
STR	52	0	1
SI_	52	0	1	96	48	4
TAP	52	192	5
TAP	52	288	5
STR	53	0	6
SI_	53	0	6	96	48	3
TAP	53	192	2
TAP	53	288	2
TAP	54	0	1
TAP	54	0	6
TAP	54	96	5
TAP	54	192	4
TAP	54	288	3
TAP	55	0	2
TAP	55	96	3
TAP	55	192	4
TAP	55	288	5
STR	56	0	6
SI_	56	0	6	96	48	3
TAP	56	192	2
TAP	56	288	2
TAP	56	288	3
STR	57	0	1
SI_	57	0	1	96	48	4
TAP	57	192	5
TAP	57	288	4
TAP	57	288	5
TAP	58	0	2
TAP	58	0	6
TAP	58	96	1
TAP	58	192	2
TAP	58	288	3
TAP	59	0	4
TAP	59	96	3
TAP	59	192	2
TAP	59	288	1
STR	60	0	0
SI_	60	0	0	96	48	4
TAP	60	192	5
TAP	60	288	4
TAP	60	288	5
STR	61	0	7
SI_	61	0	7	96	48	3
TAP	61	192	2
TAP	61	288	2
TAP	61	288	3
TAP	62	0	1
TAP	62	0	5
TAP	62	96	6
TAP	62	192	5
TAP	62	288	4
TAP	63	0	3
TAP	63	96	4
TAP	63	192	5
TAP	63	288	6
STR	64	0	7
SI_	64	0	7	96	48	3
TAP	64	192	2
TAP	64	288	1
TAP	64	288	3
STR	65	0	0
SI_	65	0	0	96	48	4
TAP	65	192	5
TAP	65	288	4
TAP	65	288	6
TAP	66	0	7
TAP	66	96	0
TAP	66	96	6
TAP	66	192	5
TAP	66	240	4
TAP	66	288	3
TAP	66	336	2

T_REC_TAP	288
T_REC_BRK	8
T_REC_XTP	0
T_REC_HLD	20
T_REC_XHO	0
T_REC_STR	14
T_REC_BST	0
T_REC_XST	0
T_REC_TTP	0
T_REC_THO	0
T_REC_SLD	14
T_REC_ALL	344
T_NUM_TAP	302
T_NUM_BRK	8
T_NUM_HLD	20
T_NUM_SLD	14
T_NUM_ALL	344
T_JUDGE_TAP	310
T_JUDGE_HLD	42
T_JUDGE_SLD	14
T_JUDGE_ALL	366
TTM_EACHPAIRS	82
TTM_SCR_TAP	151000
TTM_SCR_BRK	20800
TTM_SCR_HLD	20000
TTM_SCR_SLD	21000
TTM_SCR_ALL	212800
TTM_SCR_S	205650
TTM_SCR_SS	212000
TTM_RAT_ACV	10037

