VERSION	0.00.00	1.03.00
FES_MODE	0
BPM_DEF	135.000	135.000	135.000	135.000
MET_DEF	4	4
RESOLUTION	384
CLK_DEF	384
COMPATIBLE_CODE	MA2

BPM	0	0	135.000
MET	0	0	4	4

TAP	1	0	4
TAP	1	192	4
TAP	2	0	3
TAP	2	192	3
TAP	3	0	2
TAP	3	0	5
HLD	4	0	1	576
TAP	6	0	0
TAP	6	0	1
TAP	6	192	2
TAP	7	0	2
TAP	7	0	3
TAP	7	192	4
TAP	8	0	4
TAP	8	0	5
TAP	8	192	6
TAP	9	0	7
TAP	9	96	7
TAP	9	192	0
TAP	9	288	0
TAP	10	0	6
TAP	10	0	7
TAP	10	192	5
TAP	11	0	4
TAP	11	0	5
TAP	11	192	3
TAP	12	0	2
TAP	12	0	3
TAP	12	192	1
TAP	13	0	0
TAP	13	96	0
TAP	13	192	7
TAP	13	288	7
STR	14	0	0
SI_	14	0	0	96	192	4
TAP	15	96	5
TAP	15	288	5
TAP	16	96	3
TAP	16	288	3
TAP	17	96	4
TAP	17	288	4
TAP	18	96	2
TAP	18	288	2
TAP	18	288	3
TAP	19	96	1
TAP	19	288	1
TAP	20	96	7
TAP	20	288	7
TAP	21	96	0
TAP	21	288	0
HLD	22	0	0	192
HLD	22	0	7	192
TAP	23	0	0
TAP	23	96	0
TAP	23	192	0
TAP	24	0	1
TAP	24	96	1
TAP	24	192	1
TAP	25	0	2
TAP	25	96	2
TAP	25	192	2
TAP	26	0	3
TAP	26	96	3
TAP	26	192	3
TAP	27	0	4
TAP	27	96	4
TAP	27	192	4
TAP	28	0	5
TAP	28	96	5
TAP	28	192	5
TAP	29	0	6
TAP	29	96	6
TAP	29	192	6
TAP	30	0	7
TAP	30	96	7
TAP	30	192	7
HLD	31	0	0	576
HLD	32	0	7	192
TAP	33	0	6
TAP	33	0	7
TAP	33	192	1
TAP	33	288	0
TAP	34	0	0
TAP	34	0	1
TAP	34	192	6
TAP	34	288	7
TAP	35	0	6
TAP	35	0	7
TAP	35	192	4
TAP	35	192	5
TAP	36	0	4
TAP	36	96	4
TAP	36	192	3
TAP	36	288	3
TAP	37	0	3
TAP	37	0	4
TAP	37	192	5
TAP	37	288	5
TAP	38	0	4
TAP	38	0	5
TAP	38	192	3
TAP	38	288	3
TAP	39	0	2
TAP	39	0	3
TAP	39	192	0
TAP	39	192	1
TAP	40	0	0
TAP	40	96	7
TAP	40	192	0
BRK	41	0	0
BRK	41	0	7
TAP	41	192	6
TAP	41	288	6
TAP	42	0	6
TAP	42	0	7
TAP	42	192	0
TAP	42	288	0
TAP	43	0	0
TAP	43	0	1
TAP	43	192	2
TAP	43	192	3
TAP	44	0	3
TAP	44	96	3
TAP	44	192	4
TAP	44	288	4
TAP	45	0	3
TAP	45	0	4
TAP	45	192	3
TAP	45	288	3
TAP	46	0	2
TAP	46	0	3
TAP	46	192	4
TAP	46	288	4
TAP	47	0	4
TAP	47	0	5
TAP	47	192	6
TAP	47	192	7
TAP	48	0	0
TAP	48	96	0
TAP	48	192	7
TAP	48	288	7
BRK	49	0	1
BRK	49	0	6
TAP	50	96	1
TAP	50	288	0
TAP	50	288	1
TAP	51	96	7
TAP	51	288	6
TAP	51	288	7
TAP	52	96	4
TAP	52	96	5
TAP	52	288	4
TAP	52	288	5
TAP	53	96	2
TAP	53	96	3
TAP	53	288	2
TAP	53	288	3
TAP	54	96	2
TAP	54	288	2
TAP	54	288	3
TAP	55	96	4
TAP	55	288	4
TAP	55	288	5
TAP	56	96	6
TAP	56	96	7
TAP	56	288	6
TAP	56	288	7
TAP	57	96	0
TAP	57	96	1
TAP	57	288	0
TAP	57	288	1
TAP	58	96	1
TAP	58	192	2
TAP	58	288	3
TAP	59	96	5
TAP	59	192	6
TAP	59	288	7
TAP	60	96	1
TAP	60	96	7
TAP	60	288	1
TAP	60	288	7
TAP	61	96	0
TAP	61	96	6
TAP	61	288	0
TAP	61	288	6
TAP	62	96	6
TAP	62	192	5
TAP	62	288	4
TAP	63	96	2
TAP	63	192	1
TAP	63	288	0
TAP	64	96	0
TAP	64	96	6
TAP	64	288	0
TAP	64	288	6
TAP	65	96	1
TAP	65	96	7
TAP	65	288	1
TAP	65	288	7
TAP	66	96	0
TAP	66	192	0
BRK	66	288	7

T_REC_TAP	190
T_REC_BRK	5
T_REC_XTP	0
T_REC_HLD	5
T_REC_XHO	0
T_REC_STR	1
T_REC_BST	0
T_REC_XST	0
T_REC_TTP	0
T_REC_THO	0
T_REC_SLD	1
T_REC_ALL	202
T_NUM_TAP	191
T_NUM_BRK	5
T_NUM_HLD	5
T_NUM_SLD	1
T_NUM_ALL	202
T_JUDGE_TAP	196
T_JUDGE_HLD	36
T_JUDGE_SLD	1
T_JUDGE_ALL	233
TTM_EACHPAIRS	46
TTM_SCR_TAP	95500
TTM_SCR_BRK	13000
TTM_SCR_HLD	5000
TTM_SCR_SLD	1500
TTM_SCR_ALL	115000
TTM_SCR_S	111100
TTM_SCR_SS	114500
TTM_RAT_ACV	10043

