VERSION	0.00.00	1.03.00
FES_MODE	0
BPM_DEF	178.000	178.000	178.000	178.000
MET_DEF	4	4
RESOLUTION	384
CLK_DEF	384
COMPATIBLE_CODE	MA2

BPM	0	0	178.000
MET	0	0	4	4

TAP	2	0	0
TAP	2	0	1
TAP	2	96	2
TAP	2	96	3
TAP	2	192	4
TAP	2	192	5
TAP	2	288	6
TAP	2	288	7
TAP	3	0	0
TAP	3	48	1
TAP	3	96	2
TAP	3	144	3
TAP	3	192	4
TAP	3	240	5
TAP	3	288	6
TAP	3	336	7
TAP	4	0	0
TAP	4	24	1
TAP	4	48	2
TAP	4	72	3
TAP	4	96	4
TAP	4	120	5
TAP	4	144	6
TAP	4	168	7
TAP	4	192	0
TAP	4	216	1
TAP	4	240	2
TAP	4	264	3
TAP	4	288	4
TAP	4	312	5
TAP	4	336	6
TAP	4	360	7
TAP	5	0	0
TAP	5	24	1
TAP	5	48	2
TAP	5	72	3
TAP	5	96	4
TAP	5	120	5
TAP	5	144	6
TAP	5	168	7
TAP	5	192	0
TAP	5	204	1
TAP	5	216	2
TAP	5	228	3
TAP	5	240	4
TAP	5	252	5
TAP	5	264	6
TAP	5	276	7
BRK	5	288	0
TAP	6	0	1
TAP	6	48	1
TAP	6	96	1
TAP	6	144	6
TAP	6	192	6
TAP	6	240	6
TAP	6	288	3
TAP	6	336	4
TAP	7	48	0
TAP	7	48	2
TAP	7	144	5
TAP	7	144	7
TAP	7	240	2
TAP	7	240	5
BRK	7	288	0
BRK	7	288	7
TAP	8	0	0
TAP	8	0	2
TAP	8	48	1
TAP	8	96	1
TAP	8	144	5
TAP	8	144	7
TAP	8	192	6
TAP	8	240	6
TAP	8	288	2
TAP	8	288	3
TAP	8	336	4
TAP	8	336	5
TAP	9	48	0
TAP	9	48	2
TAP	9	144	5
TAP	9	144	7
BRK	9	240	3
BRK	9	240	4
BRK	9	336	1
BRK	9	336	6
TAP	10	0	3
TAP	10	48	5
TAP	10	72	4
TAP	10	96	5
TAP	10	144	2
TAP	10	168	3
TAP	10	192	2
TAP	10	240	5
TAP	10	264	4
TAP	10	288	5
TAP	10	336	2
TAP	10	360	3
TAP	11	0	2
TAP	11	48	5
TAP	11	72	4
TAP	11	96	5
TAP	11	144	0
TAP	11	144	1
TAP	11	240	6
TAP	11	240	7
TAP	12	0	4
TAP	12	48	2
TAP	12	72	3
TAP	12	96	2
TAP	12	144	5
TAP	12	168	4
TAP	12	192	5
TAP	12	240	2
TAP	12	264	3
TAP	12	288	2
TAP	12	336	5
TAP	12	360	4
TAP	13	0	5
TAP	13	48	2
TAP	13	72	3
TAP	13	96	2
TAP	13	144	6
TAP	13	144	7
TAP	13	240	0
TAP	13	240	1
HLD	14	48	2	48
HLD	14	96	3	48
HLD	14	144	4	48
HLD	14	192	5	96
TAP	15	0	3
TAP	15	24	2
TAP	15	48	1
TAP	15	72	0
TAP	15	96	7
TAP	15	120	6
TAP	15	144	5
TAP	15	168	4
TAP	15	192	2
TAP	15	192	3
TAP	15	240	1
TAP	15	240	4
TAP	15	288	0
TAP	15	288	5
STR	15	336	6
SI_	15	336	6	96	24	4
STR	15	336	7
SI_	15	336	7	96	24	3
STR	16	144	0
SI_	16	144	0	96	24	4
STR	16	144	1
SI_	16	144	1	96	24	3
TAP	16	336	3
TAP	16	336	4
TAP	17	48	6
TAP	17	48	7
TAP	17	96	0
TAP	17	96	1
TAP	17	144	2
TAP	17	144	3
TAP	17	192	4
TAP	17	192	5
TAP	17	240	3
TAP	17	240	6
TAP	17	288	2
TAP	17	288	7
TAP	17	336	0
TAP	17	336	1
TAP	18	0	6
TAP	18	48	1
TAP	18	72	3
TAP	18	96	1
TAP	18	144	6
TAP	18	168	4
TAP	18	192	6
TAP	18	240	1
TAP	18	264	3
TAP	18	288	1
TAP	18	336	6
TAP	18	360	4
TAP	19	0	6
TAP	19	48	1
TAP	19	72	3
TAP	19	96	1
BRK	19	144	4
BRK	19	144	6
BRK	19	240	5
BRK	19	240	7
TAP	20	0	1
TAP	20	48	6
TAP	20	72	4
TAP	20	96	6
TAP	20	144	1
TAP	20	168	3
TAP	20	192	1
TAP	20	240	6
TAP	20	264	4
TAP	20	288	6
TAP	20	336	1
TAP	20	360	3
TAP	21	0	1
TAP	21	48	6
TAP	21	72	4
TAP	21	96	6
BRK	21	144	1
BRK	21	144	3
BRK	21	240	0
BRK	21	240	2
TAP	22	0	3
TAP	22	48	6
TAP	22	96	4
TAP	22	120	5
TAP	22	144	4
TAP	22	168	5
STR	22	192	4
SI_	22	192	4	96	48	0
STR	23	0	1
SV_	23	0	1	96	48	4
STR	23	0	7
SV_	23	0	7	96	48	4
STR	23	192	2
SI_	23	192	2	96	48	6
STR	23	192	5
SI_	23	192	5	96	48	3
STR	24	0	7
SCL	24	0	7	96	192	7
HLD	24	336	6	96
TAP	25	48	7
TAP	25	96	0
TAP	25	96	5
TAP	25	144	1
TAP	25	144	4
STR	25	192	2
SI_	25	192	2	96	48	7
STR	25	192	3
SI_	25	192	3	96	48	6
STR	26	0	0
SUR	26	0	0	96	96	6
STR	26	96	6
SUL	26	96	6	96	96	0
STR	26	192	0
SUR	26	192	0	96	96	6
STR	26	288	6
SUL	26	288	6	96	96	0
STR	27	0	0
SUR	27	0	0	96	96	6
STR	27	96	6
SUL	27	96	6	96	96	0
TAP	27	192	7
STR	27	288	7
SCL	27	288	7	96	96	4
STR	28	0	4
SCL	28	0	4	96	96	1
STR	28	96	1
SCL	28	96	1	96	96	6
STR	28	192	6
SCL	28	192	6	96	144	1
TAP	29	96	0
TAP	29	96	7
TAP	29	192	2
TAP	29	192	5
TAP	29	240	2
TAP	29	240	5
TAP	29	288	3
TAP	29	288	4
STR	30	0	7
SUL	30	0	7	96	96	1
STR	30	96	1
SUR	30	96	1	96	96	7
STR	30	192	7
SUL	30	192	7	96	96	1
STR	30	288	1
SUR	30	288	1	96	96	7
STR	31	0	7
SUL	31	0	7	96	96	1
STR	31	96	1
SUR	31	96	1	96	96	7
TAP	31	192	0
STR	31	288	0
SCR	31	288	0	96	96	3
STR	32	0	3
SCR	32	0	3	96	96	6
STR	32	96	6
SCR	32	96	6	96	96	1
STR	32	192	1
SCR	32	192	1	96	144	6
TAP	33	96	0
TAP	33	96	7
TAP	33	192	1
TAP	33	192	6
TAP	33	240	1
TAP	33	240	6
TAP	33	288	3
TAP	33	288	4
BRK	34	0	3
TAP	34	24	4
TAP	34	48	3
TAP	34	72	4
TAP	34	96	3
TAP	34	120	4
TAP	34	144	3
TAP	34	168	4
TAP	34	192	3
TAP	34	288	2
TAP	34	288	5
BRK	35	0	1
TAP	35	24	6
TAP	35	48	1
TAP	35	72	6
TAP	35	96	1
TAP	35	120	6
TAP	35	144	1
TAP	35	168	6
TAP	35	192	1
TAP	35	288	2
TAP	35	288	5
BRK	36	0	0
TAP	36	24	7
TAP	36	48	1
TAP	36	72	6
BRK	36	96	0
TAP	36	120	7
TAP	36	144	1
TAP	36	168	6
BRK	36	192	0
TAP	36	216	7
TAP	36	240	1
TAP	36	264	6
BRK	36	288	0
TAP	36	336	1
TAP	36	336	6
TAP	37	48	0
TAP	37	48	7
TAP	37	96	0
TAP	37	96	7
TAP	37	144	1
TAP	37	144	6
TAP	37	192	3
TAP	37	192	4
STR	37	288	0
SI_	37	288	0	96	48	3
STR	37	288	7
SI_	37	288	7	96	48	4
BRK	38	0	0
BRK	38	0	7
TAP	38	96	1
TAP	38	144	0
TAP	38	240	5
TAP	38	288	4
TAP	38	336	3
STR	39	48	6
SI_	39	48	6	96	48	4
STR	39	144	6
SI_	39	144	6	96	48	0
STR	39	240	6
SI_	39	240	6	96	48	2
TAP	39	336	6
TAP	40	0	0
TAP	40	96	6
TAP	40	144	7
TAP	40	240	2
TAP	40	288	3
TAP	40	336	4
STR	41	48	1
SI_	41	48	1	96	48	3
STR	41	144	1
SI_	41	144	1	96	48	7
STR	41	240	1
SI_	41	240	1	96	48	5
TAP	41	336	1
TAP	42	0	6
TAP	42	48	2
TAP	42	96	7
TAP	42	144	1
TAP	42	192	7
TAP	42	288	0
STR	42	336	0
SI_	42	336	0	96	48	3
STR	43	48	0
SI_	43	48	0	96	48	5
STR	43	144	0
SI_	43	144	0	96	48	4
BRK	43	240	7
BRK	43	288	7
BRK	43	336	7
TAP	44	0	1
TAP	44	48	5
TAP	44	96	0
TAP	44	144	6
TAP	44	192	0
TAP	44	288	7
TAP	44	336	7
TAP	45	0	1
TAP	45	0	5
TAP	45	64	2
TAP	45	64	6
BRK	45	128	3
BRK	45	128	7
TAP	45	192	2
TAP	45	192	6
TAP	45	256	1
TAP	45	256	5
BRK	45	320	0
BRK	45	320	4
TAP	46	0	3
TAP	46	0	4
TAP	46	48	2
TAP	46	72	3
TAP	46	96	2
TAP	46	144	5
TAP	46	168	4
TAP	46	192	5
TAP	46	240	1
TAP	46	264	3
TAP	46	288	2
TAP	46	336	6
TAP	46	360	4
TAP	47	0	5
TAP	47	48	0
TAP	47	72	7
TAP	47	96	0
BRK	47	144	3
BRK	47	144	4
BRK	47	240	1
BRK	47	240	6
TAP	48	0	3
TAP	48	0	4
TAP	48	48	5
TAP	48	72	4
TAP	48	96	5
TAP	48	144	2
TAP	48	168	3
TAP	48	192	2
TAP	48	240	6
TAP	48	264	4
TAP	48	288	5
TAP	48	336	1
TAP	48	360	3
TAP	49	0	2
TAP	49	48	7
TAP	49	72	0
TAP	49	96	7
BRK	49	144	2
BRK	49	144	5
BRK	49	240	0
BRK	49	240	7
STR	50	0	3
SV_	50	0	3	96	48	6
STR	50	0	4
SI_	50	0	4	96	48	6
STR	50	96	3
SI_	50	96	3	96	48	1
STR	50	96	4
SV_	50	96	4	96	48	1
TAP	50	192	3
TAP	50	192	4
STR	51	0	2
SCR	51	0	2	96	48	4
STR	51	0	6
SCL	51	0	6	96	48	4
STR	51	96	2
SCL	51	96	2	96	48	0
STR	51	96	6
SCR	51	96	6	96	48	0
TAP	51	192	2
TAP	51	192	6
STR	51	288	2
SCL	51	288	2	96	192	7
STR	51	288	6
SCL	51	288	6	96	192	3
TAP	52	0	2
TAP	52	0	6
TAP	52	288	1
TAP	52	288	6
TAP	52	336	1
TAP	52	336	6
TAP	53	48	0
STR	53	96	0
SI_	53	96	0	96	48	2
STR	53	144	0
SI_	53	144	0	96	48	6
STR	53	192	0
SI_	53	192	0	96	48	3
STR	53	240	0
SI_	53	240	0	96	48	5
STR	53	288	0
SUR	53	288	0	96	96	2
TAP	53	336	0
BRK	54	0	0
TAP	54	192	3
TAP	54	240	4
TAP	54	288	2
TAP	54	288	5
STR	55	0	0
SUR	55	0	0	96	96	6
STR	55	96	6
SUL	55	96	6	96	96	0
STR	55	192	0
SUR	55	192	0	96	96	7
STR	55	288	7
SUL	55	288	7	96	96	1
STR	56	0	1
SUR	56	0	1	96	96	7
STR	56	96	7
SUL	56	96	7	96	96	0
TAP	56	192	0
STR	56	288	7
SCL	56	288	7	96	96	4
STR	57	0	4
SCL	57	0	4	96	96	1
STR	57	96	1
SCL	57	96	1	96	96	6
STR	57	192	6
SCL	57	192	6	96	144	1
TAP	58	96	6
TAP	58	96	7
TAP	58	192	0
TAP	58	192	5
TAP	58	240	0
TAP	58	240	5
TAP	58	288	2
TAP	58	288	3
STR	59	0	7
SUL	59	0	7	96	96	1
STR	59	96	1
SUR	59	96	1	96	96	7
STR	59	192	7
SUL	59	192	7	96	96	0
STR	59	288	0
SUR	59	288	0	96	96	6
STR	60	0	6
SUL	60	0	6	96	96	0
STR	60	96	0
SUR	60	96	0	96	96	7
TAP	60	192	7
STR	60	288	0
SCR	60	288	0	96	96	3
STR	61	0	3
SCR	61	0	3	96	96	6
STR	61	96	6
SCR	61	96	6	96	96	1
STR	61	192	1
SCR	61	192	1	96	144	6
TAP	62	96	0
TAP	62	96	1
TAP	62	192	2
TAP	62	192	7
TAP	62	240	2
TAP	62	240	7
TAP	62	288	4
TAP	62	288	5
TAP	63	0	5
TAP	63	48	2
TAP	63	72	3
TAP	63	96	2
TAP	63	144	5
TAP	63	168	4
TAP	63	192	5
TAP	63	240	2
TAP	63	264	3
TAP	63	288	2
TAP	63	336	5
TAP	63	360	4
TAP	64	0	5
TAP	64	48	1
TAP	64	72	3
TAP	64	96	1
TAP	64	144	6
TAP	64	168	4
TAP	64	192	6
TAP	64	240	1
TAP	64	264	3
TAP	64	288	1
TAP	64	336	6
TAP	64	360	4
TAP	65	0	6
TAP	65	48	0
TAP	65	72	2
TAP	65	96	0
TAP	65	144	7
TAP	65	168	5
TAP	65	192	7
TAP	65	240	0
TAP	65	264	2
TAP	65	288	0
TAP	65	336	7
TAP	65	360	5
TAP	66	0	7
TAP	66	96	0
TAP	66	96	7
TAP	66	192	3
TAP	66	192	4
TAP	66	240	3
TAP	66	240	4
TAP	66	288	1
TAP	66	288	6
BRK	67	0	0
TAP	67	24	7
BRK	67	48	0
TAP	67	72	7
BRK	67	96	1
TAP	67	120	6
BRK	67	144	1
TAP	67	168	6
BRK	67	192	2
TAP	67	216	5
BRK	67	240	2
TAP	67	264	5
BRK	67	288	3
TAP	67	312	4
BRK	67	336	3
TAP	67	360	4
TAP	68	48	0
TAP	68	48	5
TAP	68	144	2
TAP	68	144	7
TAP	68	240	0
TAP	68	240	5
TAP	68	288	2
TAP	68	288	7
BRK	69	0	1
TAP	69	24	0
BRK	69	48	1
TAP	69	72	0
BRK	69	96	2
TAP	69	120	7
BRK	69	144	2
TAP	69	168	7
BRK	69	192	3
TAP	69	216	6
BRK	69	240	3
TAP	69	264	6
BRK	69	288	4
TAP	69	312	5
BRK	69	336	4
TAP	69	360	5
TAP	70	48	2
TAP	70	48	5
TAP	70	144	1
TAP	70	144	6
TAP	70	240	2
TAP	70	240	5
TAP	70	288	0
TAP	70	288	7
BRK	71	0	0
STR	71	0	1
SI_	71	0	1	96	48	4
BRK	71	96	0
TAP	71	96	1
STR	71	192	6
SI_	71	192	6	96	48	3
BRK	71	192	7
TAP	71	288	6
BRK	71	288	7
BRK	72	0	0
STR	72	0	1
SI_	72	0	1	96	48	4
BRK	72	96	0
TAP	72	96	1
STR	72	192	6
SI_	72	192	6	96	48	3
BRK	72	192	7
TAP	72	288	6
BRK	72	288	7
BRK	73	0	0
STR	73	0	1
SI_	73	0	1	96	48	4
BRK	73	48	0
BRK	73	96	0
TAP	73	96	1
STR	73	192	6
SI_	73	192	6	96	48	3
BRK	73	192	7
BRK	73	240	7
TAP	73	288	6
BRK	73	288	7
BRK	74	0	0
STR	74	0	1
SI_	74	0	1	96	48	4
BRK	74	48	0
BRK	74	96	0
BRK	74	96	1
STR	74	192	6
SI_	74	192	6	96	48	3
BRK	74	192	7
BRK	74	240	7
BRK	74	288	6
BRK	74	288	7
STR	75	0	4
SI_	75	0	4	96	96	7
STR	75	0	7
SCR	75	0	7	96	96	4

T_REC_TAP	433
T_REC_BRK	77
T_REC_XTP	0
T_REC_HLD	5
T_REC_XHO	0
T_REC_STR	88
T_REC_BST	0
T_REC_XST	0
T_REC_TTP	0
T_REC_THO	0
T_REC_SLD	88
T_REC_ALL	691
T_NUM_TAP	521
T_NUM_BRK	77
T_NUM_HLD	5
T_NUM_SLD	88
T_NUM_ALL	691
T_JUDGE_TAP	598
T_JUDGE_HLD	7
T_JUDGE_SLD	88
T_JUDGE_ALL	693
TTM_EACHPAIRS	119
TTM_SCR_TAP	260500
TTM_SCR_BRK	200200
TTM_SCR_HLD	5000
TTM_SCR_SLD	132000
TTM_SCR_ALL	597700
TTM_SCR_S	572300
TTM_SCR_SS	590000
TTM_RAT_ACV	10130

