VERSION	0.00.00	1.03.00
FES_MODE	0
BPM_DEF	178.000	178.000	178.000	178.000
MET_DEF	4	4
RESOLUTION	384
CLK_DEF	384
COMPATIBLE_CODE	MA2

BPM	0	0	178.000
MET	0	0	4	4

STR	2	0	1
SUR	2	0	1	96	48	5
STR	2	192	6
SUL	2	192	6	96	48	2
STR	3	0	0
SUR	3	0	0	96	48	5
STR	3	192	7
SUL	3	192	7	96	48	2
TAP	4	0	0
TAP	4	0	1
TAP	4	96	2
TAP	4	96	3
TAP	4	192	4
TAP	4	192	5
TAP	4	288	6
TAP	4	288	7
TAP	5	0	0
TAP	5	48	7
TAP	5	96	1
TAP	5	144	6
TAP	5	192	2
TAP	5	240	5
TAP	5	288	3
TAP	5	288	4
TAP	6	0	6
TAP	6	48	6
TAP	6	48	7
TAP	6	144	1
TAP	6	192	0
TAP	6	192	1
TAP	6	288	7
TAP	6	336	0
TAP	6	336	7
TAP	7	48	4
TAP	7	48	5
TAP	7	144	2
TAP	7	144	3
TAP	7	240	0
TAP	7	240	7
TAP	7	336	6
TAP	8	0	5
TAP	8	48	3
TAP	8	48	4
TAP	8	144	2
TAP	8	192	2
TAP	8	192	3
TAP	8	288	5
TAP	8	336	4
TAP	8	336	5
TAP	9	48	6
TAP	9	48	7
TAP	9	144	0
TAP	9	144	1
TAP	9	240	3
TAP	9	240	4
TAP	9	336	1
TAP	9	336	6
STR	10	0	2
SCR	10	0	2	96	48	5
STR	10	192	6
SUL	10	192	6	96	48	2
STR	11	0	1
SCL	11	0	1	96	48	6
TAP	11	144	4
TAP	11	240	0
TAP	11	240	6
STR	12	0	5
SCL	12	0	5	96	48	2
STR	12	192	1
SUR	12	192	1	96	48	5
STR	13	0	6
SCR	13	0	6	96	48	1
TAP	13	144	3
TAP	13	240	1
TAP	13	240	7
TAP	14	48	6
TAP	14	96	3
TAP	14	144	4
TAP	14	192	1
TAP	14	288	0
TAP	14	288	7
TAP	15	0	1
TAP	15	48	4
TAP	15	96	2
TAP	15	144	5
TAP	15	192	3
TAP	15	240	6
TAP	15	288	4
STR	15	336	7
SI_	15	336	7	96	48	3
STR	16	144	0
SI_	16	144	0	96	48	4
TAP	16	336	2
TAP	16	336	5
TAP	17	48	3
TAP	17	96	4
TAP	17	144	2
TAP	17	192	5
TAP	17	240	1
TAP	17	288	6
TAP	17	336	0
STR	18	0	7
SUL	18	0	7	96	48	3
STR	18	192	0
SUR	18	192	0	96	48	4
STR	19	0	5
SCL	19	0	5	96	48	2
TAP	19	144	1
TAP	19	240	6
TAP	19	240	7
STR	20	0	0
SUR	20	0	0	96	48	4
STR	20	192	7
SUL	20	192	7	96	48	3
STR	21	0	2
SCR	21	0	2	96	48	5
TAP	21	144	6
TAP	21	240	0
TAP	21	240	1
TAP	22	0	7
TAP	22	48	3
TAP	22	96	6
TAP	22	144	2
TAP	22	192	5
TAP	22	288	0
TAP	22	288	7
TAP	23	0	1
TAP	23	48	4
TAP	23	96	2
TAP	23	144	5
TAP	23	192	3
TAP	23	240	6
TAP	23	288	4
STR	23	336	7
SI_	23	336	7	96	48	2
STR	24	144	0
SI_	24	144	0	96	48	5
TAP	24	336	3
TAP	24	336	4
TAP	25	48	1
TAP	25	48	6
TAP	25	96	1
TAP	25	96	6
TAP	25	144	1
TAP	25	144	6
TAP	25	192	1
TAP	25	192	6
BRK	25	288	0
BRK	25	288	7
HLD	26	0	1	96
TAP	26	96	0
TAP	26	192	2
TAP	26	240	3
TAP	26	288	1
TAP	26	288	4
TAP	27	0	5
TAP	27	48	4
TAP	27	96	3
TAP	27	96	6
TAP	27	192	7
TAP	27	240	0
TAP	27	288	1
TAP	27	288	6
TAP	28	0	2
TAP	28	48	2
TAP	28	96	3
TAP	28	144	3
TAP	28	192	4
TAP	28	240	4
TAP	28	336	6
TAP	28	336	7
TAP	29	48	4
TAP	29	48	5
TAP	29	96	3
TAP	29	96	6
TAP	29	192	2
TAP	29	240	3
TAP	29	288	1
TAP	29	288	4
HLD	30	0	6	96
TAP	30	96	7
TAP	30	192	5
TAP	30	240	4
TAP	30	288	3
TAP	30	288	6
TAP	31	0	2
TAP	31	48	3
TAP	31	96	1
TAP	31	96	4
TAP	31	192	0
TAP	31	240	7
TAP	31	288	1
TAP	31	288	6
TAP	32	0	5
TAP	32	48	5
TAP	32	96	4
TAP	32	144	4
TAP	32	192	3
TAP	32	240	3
TAP	32	336	0
TAP	32	336	1
TAP	33	48	2
TAP	33	48	3
TAP	33	96	1
TAP	33	96	4
TAP	33	192	5
TAP	33	240	4
TAP	33	288	3
TAP	33	288	6
HLD	34	0	2	576
TAP	34	96	0
TAP	34	192	7
TAP	34	288	6
TAP	35	0	5
TAP	35	96	4
TAP	35	192	3
TAP	35	288	1
TAP	35	288	4
HLD	36	0	5	288
TAP	36	96	7
TAP	36	192	0
TAP	36	288	1
TAP	36	336	1
TAP	37	48	2
TAP	37	96	3
TAP	37	144	4
TAP	37	192	5
STR	37	288	3
SI_	37	288	3	96	48	0
STR	37	288	4
SI_	37	288	4	96	48	7
TAP	38	96	1
TAP	38	144	1
TAP	38	240	6
TAP	38	288	6
TAP	39	0	1
HLD	39	48	1	96
HLD	39	144	3	96
HLD	39	240	4	96
TAP	39	336	6
TAP	40	0	6
TAP	40	96	1
TAP	40	144	1
TAP	40	240	2
TAP	40	288	2
TAP	41	0	5
HLD	41	48	5	96
HLD	41	144	7	96
HLD	41	240	0	96
TAP	41	336	2
TAP	42	0	1
TAP	42	48	0
TAP	42	48	1
TAP	42	144	6
TAP	42	192	6
TAP	42	192	7
TAP	42	288	2
TAP	42	288	5
TAP	42	336	2
TAP	42	336	5
TAP	43	48	3
TAP	43	48	4
TAP	43	144	1
TAP	43	144	6
TAP	43	240	0
TAP	43	240	7
TAP	43	288	0
TAP	43	288	7
TAP	43	336	0
TAP	43	336	7
TAP	44	0	1
TAP	44	48	5
TAP	44	96	3
TAP	44	144	7
TAP	44	192	0
TAP	44	288	1
TAP	44	288	6
TAP	44	336	1
TAP	44	336	6
TAP	45	0	2
TAP	45	0	4
TAP	45	64	3
TAP	45	64	5
TAP	45	128	1
TAP	45	128	6
TAP	45	192	4
TAP	45	192	5
TAP	45	256	2
TAP	45	256	3
TAP	45	320	0
TAP	45	320	7
STR	46	0	2
SCR	46	0	2	96	48	5
STR	46	192	6
SCR	46	192	6	96	48	1
STR	47	0	2
SUL	47	0	2	96	48	5
TAP	47	144	4
TAP	47	240	0
TAP	47	240	7
STR	48	0	5
SCL	48	0	5	96	48	2
STR	48	192	1
SCL	48	192	1	96	48	6
STR	49	0	5
SUR	49	0	5	96	48	2
TAP	49	144	3
TAP	49	240	0
TAP	49	240	7
TAP	50	0	2
TAP	50	48	5
TAP	50	96	3
TAP	50	144	4
TAP	50	192	1
TAP	50	288	0
TAP	50	288	7
TAP	51	0	1
TAP	51	48	4
TAP	51	96	2
TAP	51	144	5
TAP	51	192	3
TAP	51	240	6
TAP	51	288	4
STR	51	336	7
SCL	51	336	7	96	48	4
STR	52	144	0
SCR	52	144	0	96	48	3
TAP	52	288	5
TAP	52	336	4
TAP	52	336	6
TAP	53	48	7
TAP	53	96	3
TAP	53	144	6
TAP	53	192	2
TAP	53	240	5
TAP	53	288	1
TAP	53	336	4
BRK	54	0	0
TAP	54	96	3
TAP	54	96	4
TAP	54	192	0
TAP	54	240	7
TAP	54	288	1
TAP	54	288	6
HLD	55	0	2	96
TAP	55	96	3
TAP	55	192	1
TAP	55	240	0
TAP	55	288	2
TAP	55	288	7
TAP	56	0	6
TAP	56	48	7
TAP	56	96	0
TAP	56	96	5
TAP	56	192	4
TAP	56	240	3
TAP	56	288	2
TAP	56	288	5
TAP	57	0	1
TAP	57	48	4
TAP	57	96	3
TAP	57	144	6
TAP	57	192	2
TAP	57	240	5
TAP	57	336	0
TAP	57	336	7
TAP	58	48	6
TAP	58	48	7
TAP	58	96	0
TAP	58	96	5
TAP	58	192	1
TAP	58	240	0
TAP	58	288	2
TAP	58	288	7
HLD	59	0	6	96
TAP	59	96	7
TAP	59	192	0
TAP	59	240	1
TAP	59	240	7
TAP	59	288	2
TAP	59	288	6
TAP	60	0	7
TAP	60	48	0
TAP	60	48	6
TAP	60	96	1
TAP	60	96	5
TAP	60	192	0
TAP	60	192	7
TAP	60	240	1
TAP	60	240	6
TAP	60	288	2
TAP	60	288	5
TAP	61	0	6
TAP	61	48	3
TAP	61	96	4
TAP	61	144	1
TAP	61	192	5
TAP	61	240	2
TAP	61	336	0
TAP	61	336	7
TAP	62	48	6
TAP	62	48	7
TAP	62	96	0
TAP	62	96	5
TAP	62	192	1
TAP	62	240	0
TAP	62	288	2
TAP	62	288	7
TAP	63	0	6
TAP	63	48	6
TAP	63	96	5
TAP	63	144	5
TAP	63	192	4
TAP	63	240	4
TAP	63	288	3
TAP	63	336	3
TAP	64	0	2
TAP	64	48	2
TAP	64	96	1
TAP	64	144	1
TAP	64	192	0
TAP	64	192	7
TAP	64	288	3
TAP	64	288	4
TAP	65	0	5
TAP	65	48	5
TAP	65	96	6
TAP	65	144	6
TAP	65	192	7
TAP	65	240	7
TAP	65	288	0
TAP	65	336	0
TAP	66	0	1
TAP	66	48	1
TAP	66	96	2
TAP	66	96	5
TAP	66	192	3
TAP	66	240	4
TAP	66	288	2
TAP	66	288	5
TAP	67	0	1
TAP	67	48	0
TAP	67	48	1
TAP	67	144	6
TAP	67	192	6
TAP	67	192	7
TAP	67	288	0
TAP	67	336	0
TAP	67	336	7
TAP	68	48	2
TAP	68	48	3
TAP	68	144	4
TAP	68	144	5
TAP	68	240	0
TAP	68	240	7
TAP	68	336	1
TAP	69	0	2
TAP	69	48	3
TAP	69	48	4
TAP	69	144	5
TAP	69	192	4
TAP	69	192	6
TAP	69	288	2
TAP	69	336	1
TAP	69	336	3
TAP	70	48	4
TAP	70	96	3
TAP	70	144	5
TAP	70	192	2
TAP	70	240	6
TAP	70	288	1
TAP	70	336	7
STR	71	0	0
SI_	71	0	0	96	48	4
STR	71	0	1
SI_	71	0	1	96	48	3
STR	71	192	6
SI_	71	192	6	96	48	4
STR	71	192	7
SI_	71	192	7	96	48	3
STR	72	0	0
SI_	72	0	0	96	48	5
STR	72	0	1
SI_	72	0	1	96	48	4
STR	72	192	6
SI_	72	192	6	96	48	3
STR	72	192	7
SI_	72	192	7	96	48	2
STR	73	0	0
SI_	73	0	0	96	48	6
STR	73	0	1
SI_	73	0	1	96	48	5
STR	73	192	6
SI_	73	192	6	96	48	2
STR	73	192	7
SI_	73	192	7	96	48	1
STR	74	0	0
SI_	74	0	0	96	48	3
STR	74	0	7
SI_	74	0	7	96	48	4
STR	74	192	3
SCL	74	192	3	96	96	0
STR	74	192	4
SCR	74	192	4	96	96	7
BRK	75	96	0
BRK	75	96	7

T_REC_TAP	397
T_REC_BRK	5
T_REC_XTP	0
T_REC_HLD	12
T_REC_XHO	0
T_REC_STR	46
T_REC_BST	0
T_REC_XST	0
T_REC_TTP	0
T_REC_THO	0
T_REC_SLD	46
T_REC_ALL	506
T_NUM_TAP	443
T_NUM_BRK	5
T_NUM_HLD	12
T_NUM_SLD	46
T_NUM_ALL	506
T_JUDGE_TAP	448
T_JUDGE_HLD	38
T_JUDGE_SLD	46
T_JUDGE_ALL	532
TTM_EACHPAIRS	110
TTM_SCR_TAP	221500
TTM_SCR_BRK	13000
TTM_SCR_HLD	12000
TTM_SCR_SLD	69000
TTM_SCR_ALL	315500
TTM_SCR_S	305550
TTM_SCR_SS	315000
TTM_RAT_ACV	10015

