VERSION	0.00.00	1.03.00
FES_MODE	0
BPM_DEF	178.000	178.000	178.000	178.000
MET_DEF	4	4
RESOLUTION	384
CLK_DEF	384
COMPATIBLE_CODE	MA2

BPM	0	0	178.000
MET	0	0	4	4

TAP	2	0	2
TAP	2	0	3
TAP	3	0	4
TAP	3	0	5
STR	4	0	3
SI_	4	0	3	96	288	0
BRK	6	0	7
TAP	7	0	6
TAP	7	0	7
TAP	8	0	0
TAP	9	0	0
TAP	9	0	1
TAP	10	0	2
TAP	10	192	2
TAP	11	0	2
TAP	11	0	3
TAP	12	0	4
TAP	12	192	4
TAP	13	0	4
TAP	13	0	5
TAP	14	0	6
TAP	14	192	6
TAP	15	0	7
TAP	15	192	7
TAP	16	0	0
TAP	16	0	7
HLD	17	0	7	192
TAP	18	0	5
TAP	18	192	5
TAP	19	0	4
TAP	19	0	5
TAP	20	0	3
TAP	20	192	3
TAP	21	0	2
TAP	21	0	3
TAP	22	0	1
TAP	22	192	1
TAP	23	0	0
TAP	23	192	0
TAP	24	0	0
TAP	24	0	7
HLD	25	0	0	192
TAP	26	0	1
TAP	26	96	1
TAP	26	192	1
TAP	27	0	2
TAP	27	96	2
TAP	27	192	2
TAP	28	0	3
TAP	28	96	3
TAP	28	192	3
HLD	29	0	4	192
TAP	30	0	6
TAP	30	96	6
TAP	30	192	6
TAP	31	0	5
TAP	31	96	5
TAP	31	192	5
TAP	32	0	4
TAP	32	96	4
TAP	32	192	4
HLD	33	0	3	192
STR	34	0	3
SI_	34	0	3	96	288	7
STR	36	0	4
SI_	36	0	4	96	288	0
TAP	38	0	0
TAP	38	0	7
TAP	39	0	1
TAP	40	0	2
TAP	41	0	3
TAP	42	0	4
TAP	42	192	4
TAP	43	0	3
TAP	43	0	5
TAP	44	0	3
TAP	44	192	3
TAP	45	0	2
TAP	45	0	4
TAP	46	0	2
TAP	46	192	2
TAP	47	0	2
TAP	47	0	3
TAP	48	0	5
TAP	48	192	5
TAP	49	0	4
TAP	49	0	5
TAP	50	0	6
TAP	50	192	6
TAP	51	0	7
TAP	51	192	7
HLD	52	0	0	192
HLD	52	0	7	192
TAP	53	0	0
TAP	53	0	7
TAP	53	192	0
TAP	53	192	7
BRK	54	0	0
BRK	54	0	7
TAP	55	0	1
TAP	55	96	1
TAP	55	192	2
TAP	56	0	3
TAP	56	96	3
TAP	56	192	4
TAP	57	0	5
TAP	57	96	5
TAP	57	192	6
HLD	58	0	7	192
TAP	59	0	6
TAP	59	96	6
TAP	59	192	5
TAP	60	0	4
TAP	60	96	4
TAP	60	192	3
TAP	61	0	2
TAP	61	96	2
TAP	61	192	1
HLD	62	0	0	192
HLD	63	0	6	384
HLD	63	0	7	384
HLD	65	0	0	384
HLD	65	0	1	384
TAP	66	192	0
TAP	66	192	7
TAP	66	288	0
TAP	66	288	7
HLD	67	0	0	768
HLD	67	0	7	768
TAP	71	0	0
TAP	71	0	1
TAP	71	192	0
TAP	71	192	1
TAP	72	0	2
TAP	72	0	3
TAP	72	192	2
TAP	72	192	3
TAP	73	0	4
TAP	73	0	5
TAP	73	192	4
TAP	73	192	5
TAP	74	0	6
TAP	74	0	7
TAP	74	192	6
TAP	74	192	7
TAP	75	0	0
TAP	75	0	7
BRK	75	96	0
BRK	75	96	7

T_REC_TAP	124
T_REC_BRK	5
T_REC_XTP	0
T_REC_HLD	14
T_REC_XHO	0
T_REC_STR	3
T_REC_BST	0
T_REC_XST	0
T_REC_TTP	0
T_REC_THO	0
T_REC_SLD	3
T_REC_ALL	149
T_NUM_TAP	127
T_NUM_BRK	5
T_NUM_HLD	14
T_NUM_SLD	3
T_NUM_ALL	149
T_JUDGE_TAP	132
T_JUDGE_HLD	96
T_JUDGE_SLD	3
T_JUDGE_ALL	231
TTM_EACHPAIRS	34
TTM_SCR_TAP	63500
TTM_SCR_BRK	13000
TTM_SCR_HLD	14000
TTM_SCR_SLD	4500
TTM_SCR_ALL	95000
TTM_SCR_S	91700
TTM_SCR_SS	94500
TTM_RAT_ACV	10052

