VERSION	0.00.00	1.03.00
FES_MODE	0
BPM_DEF	193.000	193.000	193.000	193.000
MET_DEF	4	4
RESOLUTION	384
CLK_DEF	384
COMPATIBLE_CODE	MA2

BPM	0	0	193.000
MET	0	0	4	4

STR	1	0	1
SCL	1	0	1	96	72	6
STR	1	48	7
SCL	1	48	7	96	72	4
STR	1	96	5
SCL	1	96	5	96	72	2
STR	1	144	3
SCL	1	144	3	96	72	0
TAP	2	48	5
TAP	2	96	4
TAP	2	192	2
TAP	2	240	3
TAP	2	336	7
TAP	3	48	2
TAP	3	96	3
TAP	3	192	5
TAP	3	240	4
TAP	3	336	0
TAP	4	48	6
TAP	4	96	4
TAP	4	192	1
TAP	4	240	3
TAP	4	336	7
STR	5	0	6
SCR	5	0	6	96	72	1
STR	5	48	0
SCR	5	48	0	96	72	3
STR	5	96	2
SCR	5	96	2	96	72	5
STR	5	144	4
SCR	5	144	4	96	72	7
TAP	6	48	1
TAP	6	96	0
TAP	6	192	6
TAP	6	240	7
TAP	6	336	3
TAP	6	336	4
TAP	7	48	5
TAP	7	96	7
TAP	7	192	2
TAP	7	240	0
TAP	7	336	1
TAP	7	336	6
TAP	8	48	3
TAP	8	48	7
TAP	8	96	2
TAP	8	96	6
STR	8	144	1
SI_	8	144	1	96	48	6
STR	8	144	5
SI_	8	144	5	96	48	2
TAP	8	240	1
TAP	8	240	5
TAP	8	336	3
TAP	8	336	7
STR	9	0	0
SI_	9	0	0	96	48	3
STR	9	0	4
SI_	9	0	4	96	48	7
TAP	9	96	0
TAP	9	96	4
TAP	9	192	6
TAP	9	240	5
TAP	9	288	4
TAP	9	336	3
TAP	9	336	7
STR	10	48	6
SI_	10	48	6	96	48	2
TAP	10	96	7
TAP	10	144	6
TAP	10	192	1
TAP	10	240	3
TAP	10	288	4
TAP	10	336	6
STR	11	0	3
SI_	11	0	3	96	48	0
STR	11	0	7
SI_	11	0	7	96	48	4
TAP	11	96	3
TAP	11	96	7
TAP	11	192	1
TAP	11	240	2
TAP	11	288	3
TAP	11	336	0
TAP	11	336	4
STR	12	48	1
SI_	12	48	1	96	48	5
TAP	12	96	0
TAP	12	144	1
TAP	12	192	6
TAP	12	240	4
TAP	12	288	3
TAP	12	336	1
STR	13	0	2
SI_	13	0	2	96	48	5
STR	13	0	6
SI_	13	0	6	96	48	1
TAP	13	96	2
TAP	13	96	6
TAP	13	192	1
TAP	13	240	0
TAP	13	288	7
TAP	13	336	1
TAP	13	336	6
STR	14	48	5
SI_	14	48	5	96	48	1
TAP	14	96	4
TAP	14	144	5
STR	14	192	2
SI_	14	192	2	96	48	6
TAP	14	240	3
TAP	14	288	2
TAP	14	336	7
STR	15	0	0
SCL	15	0	0	96	48	5
STR	15	0	7
SCR	15	0	7	96	48	2
TAP	15	96	0
TAP	15	96	7
TAP	15	192	3
TAP	15	192	4
HLD	15	240	3	96
HLD	15	240	4	96
STR	16	0	1
SCL	16	0	1	96	48	6
TAP	16	96	1
STR	16	144	5
SCL	16	144	5	96	48	2
TAP	16	240	5
TAP	17	0	3
TAP	17	0	7
STR	17	96	0
SCR	17	96	0	96	48	3
STR	17	96	4
SCR	17	96	4	96	48	7
STR	17	144	3
SCL	17	144	3	96	48	0
STR	17	144	7
SCL	17	144	7	96	48	4
TAP	17	336	3
TAP	17	336	7
STR	18	0	0
SI_	18	0	0	96	48	5
TAP	18	48	7
TAP	18	96	0
STR	18	144	6
SI_	18	144	6	96	48	3
TAP	18	192	2
TAP	18	240	6
STR	18	288	1
SI_	18	288	1	96	48	4
TAP	18	336	5
TAP	19	0	1
STR	19	48	7
SI_	19	48	7	96	48	2
TAP	19	96	1
TAP	19	144	7
STR	19	192	0
SCR	19	192	0	96	48	3
TAP	19	240	4
TAP	19	288	5
TAP	19	336	6
STR	20	0	7
SI_	20	0	7	96	48	2
TAP	20	48	0
TAP	20	96	7
STR	20	144	1
SI_	20	144	1	96	48	4
TAP	20	192	5
TAP	20	240	1
STR	20	288	6
SI_	20	288	6	96	48	3
TAP	20	336	2
TAP	21	0	6
STR	21	48	0
SI_	21	48	0	96	48	5
TAP	21	96	6
TAP	21	144	0
STR	21	192	7
SCL	21	192	7	96	48	4
TAP	21	240	3
TAP	21	288	2
TAP	21	336	1
STR	22	0	0
SI_	22	0	0	96	48	4
TAP	22	48	4
TAP	22	96	0
STR	22	144	6
SI_	22	144	6	96	48	2
TAP	22	192	2
TAP	22	240	6
STR	22	288	1
SI_	22	288	1	96	48	5
TAP	22	336	5
TAP	23	0	1
STR	23	48	7
SI_	23	48	7	96	48	3
TAP	23	96	3
TAP	23	144	7
STR	23	192	0
SCR	23	192	0	96	48	3
STR	23	240	7
SCL	23	240	7	96	48	4
TAP	23	288	0
TAP	23	336	7
STR	24	0	1
SI_	24	0	1	96	48	6
TAP	24	48	6
TAP	24	96	1
STR	24	144	5
SI_	24	144	5	96	48	2
TAP	24	192	2
TAP	24	240	5
TAP	24	288	1
TAP	24	336	2
TAP	25	0	3
TAP	25	0	4
STR	25	48	0
SI_	25	48	0	96	48	4
STR	25	48	7
SI_	25	48	7	96	48	3
TAP	25	72	1
TAP	25	72	6
TAP	25	96	2
TAP	25	96	5
TAP	25	144	0
TAP	25	144	7
TAP	25	240	5
TAP	25	288	4
TAP	25	336	3
STR	26	0	2
SCL	26	0	2	96	48	7
TAP	26	48	3
TAP	26	96	4
STR	26	144	5
SCL	26	144	5	96	48	2
TAP	26	192	6
TAP	26	240	7
STR	26	288	0
SCL	26	288	0	96	48	5
TAP	26	336	1
TAP	27	0	2
STR	27	48	3
SCL	27	48	3	96	48	0
TAP	27	96	4
TAP	27	144	5
STR	27	192	6
SI_	27	192	6	96	48	3
STR	27	240	7
SI_	27	240	7	96	48	2
TAP	27	288	6
TAP	27	336	7
STR	28	0	5
SCR	28	0	5	96	48	0
TAP	28	48	4
TAP	28	96	3
STR	28	144	2
SCR	28	144	2	96	48	5
TAP	28	192	1
TAP	28	240	0
STR	28	288	7
SCR	28	288	7	96	48	2
TAP	28	336	6
TAP	29	0	5
STR	29	48	4
SCR	29	48	4	96	48	7
TAP	29	96	3
TAP	29	144	2
STR	29	192	1
SI_	29	192	1	96	48	4
STR	29	240	0
SI_	29	240	0	96	48	5
TAP	29	288	1
TAP	29	336	0
STR	30	0	3
SCL	30	0	3	96	48	0
TAP	30	48	4
TAP	30	96	5
STR	30	144	6
SCL	30	144	6	96	48	3
TAP	30	192	7
TAP	30	240	0
STR	30	288	1
SCL	30	288	1	96	48	6
TAP	30	336	2
TAP	31	0	3
STR	31	48	4
SCL	31	48	4	96	48	1
TAP	31	96	5
TAP	31	144	6
STR	31	192	7
SI_	31	192	7	96	48	3
STR	31	240	0
SI_	31	240	0	96	48	4
TAP	31	288	7
TAP	31	336	0
STR	32	0	6
SI_	32	0	6	96	48	1
TAP	32	48	1
TAP	32	96	6
STR	32	144	2
SI_	32	144	2	96	48	5
TAP	32	192	5
TAP	32	240	2
TAP	32	288	6
TAP	32	336	5
TAP	33	0	3
TAP	33	0	4
TAP	33	48	0
TAP	33	64	7
TAP	33	80	6
STR	33	96	5
SI_	33	96	5	96	48	1
TAP	33	112	4
TAP	33	128	3
STR	33	144	2
SI_	33	144	2	96	48	6
TAP	33	160	1
TAP	33	176	0
TAP	33	192	5
TAP	33	240	2
TAP	33	336	0
TAP	33	336	7
STR	34	0	0
SI_	34	0	0	96	48	5
STR	34	0	1
SI_	34	0	1	96	48	4
TAP	34	96	0
TAP	34	96	1
TAP	34	192	6
TAP	34	240	5
TAP	34	288	4
HLD	34	336	3	192
STR	35	48	7
SI_	35	48	7	96	48	3
TAP	35	144	7
TAP	35	192	2
TAP	35	240	3
TAP	35	288	4
TAP	35	336	5
STR	36	0	6
SI_	36	0	6	96	48	3
STR	36	0	7
SI_	36	0	7	96	48	2
TAP	36	96	6
TAP	36	96	7
TAP	36	192	1
TAP	36	240	2
TAP	36	288	3
HLD	36	336	4	192
STR	37	48	0
SI_	37	48	0	96	48	4
TAP	37	144	0
TAP	37	192	5
TAP	37	240	4
TAP	37	288	3
TAP	37	288	6
STR	38	0	2
SI_	38	0	2	96	48	7
STR	38	0	3
SI_	38	0	3	96	48	6
TAP	38	96	2
TAP	38	96	3
TAP	38	192	0
TAP	38	240	7
TAP	38	288	6
HLD	38	336	5	192
STR	39	48	1
SI_	39	48	1	96	48	5
TAP	39	144	1
TAP	39	192	6
TAP	39	240	5
TAP	39	288	4
TAP	39	336	3
STR	40	0	4
SI_	40	0	4	96	48	1
STR	40	0	5
SI_	40	0	5	96	48	0
TAP	40	96	4
TAP	40	96	5
TAP	40	192	7
TAP	40	240	0
TAP	40	288	1
HLD	40	336	2	192
STR	41	48	6
SI_	41	48	6	96	48	2
TAP	41	144	6
TAP	41	192	1
STR	41	240	5
SCL	41	240	5	96	48	2
TAP	41	336	2
TAP	41	336	5
STR	42	0	0
SI_	42	0	0	96	48	4
STR	42	48	7
SI_	42	48	7	96	48	3
TAP	42	96	0
TAP	42	144	7
TAP	42	192	2
TAP	42	240	3
TAP	42	288	4
HLD	42	336	5	192
STR	43	48	1
SI_	43	48	1	96	48	5
TAP	43	144	1
TAP	43	192	6
TAP	43	240	5
TAP	43	288	4
TAP	43	336	3
STR	44	0	2
SI_	44	0	2	96	48	7
STR	44	0	6
SI_	44	0	6	96	48	3
TAP	44	96	2
TAP	44	96	6
TAP	44	192	0
TAP	44	240	1
TAP	44	288	2
HLD	44	336	3	192
STR	45	48	7
SI_	45	48	7	96	48	3
TAP	45	144	7
TAP	45	192	2
TAP	45	240	3
TAP	45	288	1
TAP	45	288	4
STR	46	0	7
SI_	46	0	7	96	48	3
STR	46	48	0
SI_	46	48	0	96	48	4
TAP	46	96	7
TAP	46	144	0
TAP	46	192	5
TAP	46	240	4
TAP	46	288	3
HLD	46	336	2	192
STR	47	48	6
SI_	47	48	6	96	48	2
TAP	47	144	6
TAP	47	192	1
TAP	47	240	2
TAP	47	288	3
TAP	47	336	4
STR	48	0	1
SI_	48	0	1	96	48	4
STR	48	0	5
SI_	48	0	5	96	48	0
TAP	48	96	1
TAP	48	96	5
TAP	48	192	7
TAP	48	240	6
TAP	48	288	5
HLD	48	336	4	192
STR	49	48	0
SI_	49	48	0	96	24	4
TAP	49	144	0
TAP	49	192	3
TAP	49	192	7
TAP	49	224	6
TAP	49	256	5
TAP	49	288	0
TAP	49	288	4
TAP	49	320	1
TAP	49	352	2
TAP	50	0	3
TAP	50	0	7
TAP	50	48	2
TAP	50	96	1
TAP	50	144	0
TAP	50	168	7
TAP	50	216	5
TAP	50	240	4
TAP	50	288	1
TAP	50	336	0
TAP	50	336	2
TAP	51	0	7
TAP	51	48	6
TAP	51	96	5
TAP	51	144	4
TAP	51	168	3
TAP	51	216	1
TAP	51	240	0
TAP	51	288	5
TAP	51	336	4
TAP	51	336	6
TAP	52	0	7
TAP	52	48	0
TAP	52	96	1
TAP	52	144	2
TAP	52	168	3
TAP	52	216	5
TAP	52	240	4
TAP	52	288	1
TAP	52	336	0
TAP	52	336	2
TAP	53	0	1
TAP	53	48	2
TAP	53	96	3
TAP	53	144	4
TAP	53	168	3
TAP	53	192	4
TAP	53	216	5
TAP	53	240	4
TAP	53	288	6
TAP	53	336	5
TAP	53	336	7
TAP	54	0	6
TAP	54	48	5
TAP	54	96	4
TAP	54	144	3
TAP	54	168	1
TAP	54	216	4
TAP	54	240	6
TAP	54	288	2
TAP	54	336	1
STR	55	0	0
SCR	55	0	0	96	72	3
TAP	55	48	7
TAP	55	96	6
TAP	55	144	5
STR	55	192	4
SCR	55	192	4	96	72	7
TAP	55	240	3
TAP	55	288	2
TAP	55	336	1
TAP	56	0	0
BRK	57	192	1
BRK	57	192	6
TAP	58	0	2
TAP	58	24	3
TAP	58	48	2
TAP	58	72	1
TAP	58	96	2
TAP	58	144	4
TAP	58	168	3
TAP	58	192	4
TAP	58	216	3
TAP	58	240	4
TAP	58	288	1
TAP	58	312	0
TAP	58	336	1
TAP	59	0	5
TAP	59	24	4
TAP	59	48	5
TAP	59	72	6
TAP	59	96	5
TAP	59	144	3
TAP	59	168	4
TAP	59	192	3
TAP	59	216	4
TAP	59	240	3
TAP	59	288	6
TAP	59	312	7
TAP	59	336	6
TAP	60	0	1
TAP	60	24	0
TAP	60	48	1
TAP	60	72	0
TAP	60	96	1
TAP	60	144	5
TAP	60	168	4
TAP	60	192	5
TAP	60	216	6
TAP	60	240	5
TAP	60	288	1
TAP	60	312	2
TAP	60	336	1
TAP	61	0	6
TAP	61	24	7
TAP	61	48	6
TAP	61	72	7
TAP	61	96	6
TAP	61	144	2
TAP	61	168	3
TAP	61	192	2
TAP	61	216	1
TAP	61	240	2
TAP	61	288	6
TAP	61	312	5
TAP	61	336	6
TAP	62	0	2
TAP	62	24	3
TAP	62	48	1
TAP	62	72	3
TAP	62	96	0
TAP	62	144	6
TAP	62	168	7
TAP	62	192	6
TAP	62	216	5
TAP	62	240	6
TAP	62	288	1
TAP	62	312	0
TAP	62	336	1
TAP	63	0	5
TAP	63	24	4
TAP	63	48	6
TAP	63	72	4
TAP	63	96	7
TAP	63	144	1
TAP	63	168	0
TAP	63	192	1
TAP	63	216	2
TAP	63	240	1
TAP	63	288	6
TAP	63	312	7
TAP	63	336	6
TAP	64	0	2
TAP	64	24	3
TAP	64	48	2
TAP	64	72	1
TAP	64	96	2
TAP	64	144	5
TAP	64	168	4
TAP	64	192	5
TAP	64	216	6
TAP	64	240	5
TAP	64	288	0
TAP	64	312	7
STR	64	336	0
SI_	64	336	0	96	48	3
TAP	65	48	0
STR	65	48	4
SI_	65	48	4	96	48	7
STR	65	144	1
SI_	65	144	1	96	48	6
TAP	65	144	4
TAP	65	240	1
STR	65	240	5
SI_	65	240	5	96	48	2
TAP	65	336	0
TAP	65	336	5
TAP	66	0	1
STR	66	48	2
SI_	66	48	2	96	48	5
TAP	66	144	2
STR	66	144	6
SI_	66	144	6	96	48	1
STR	66	240	3
SI_	66	240	3	96	48	0
TAP	66	240	6
TAP	66	336	3
STR	66	336	7
SI_	66	336	7	96	48	4
STR	67	48	0
SI_	67	48	0	96	24	4
TAP	67	48	7
TAP	67	144	0
TAP	67	144	4
STR	67	192	3
SI_	67	192	3	96	48	0
STR	67	192	7
SI_	67	192	7	96	48	4
TAP	67	216	2
TAP	67	216	6
TAP	67	240	1
TAP	67	240	5
TAP	67	288	3
TAP	67	288	7
TAP	68	0	1
TAP	68	24	5
TAP	68	48	1
TAP	68	72	5
TAP	68	96	1
TAP	68	144	6
TAP	68	168	2
TAP	68	192	6
TAP	68	216	2
TAP	68	240	6
TAP	68	288	3
TAP	68	312	2
TAP	68	336	1
TAP	68	360	0
TAP	69	0	6
TAP	69	24	7
TAP	69	48	5
TAP	69	72	7
TAP	69	96	4
TAP	69	144	1
TAP	69	168	0
TAP	69	192	2
TAP	69	216	0
TAP	69	240	3
TAP	69	288	7
TAP	69	312	6
TAP	69	336	5
TAP	69	360	4
TAP	70	0	2
TAP	70	24	3
TAP	70	48	2
TAP	70	72	1
TAP	70	96	2
TAP	70	144	4
TAP	70	168	3
TAP	70	192	4
TAP	70	216	5
TAP	70	240	4
TAP	70	288	0
TAP	70	312	1
TAP	70	336	2
TAP	70	360	3
TAP	71	0	5
TAP	71	24	4
TAP	71	48	5
TAP	71	72	6
TAP	71	96	5
TAP	71	144	3
TAP	71	168	4
TAP	71	192	3
TAP	71	216	2
TAP	71	240	3
TAP	71	288	5
TAP	71	312	6
TAP	71	336	7
TAP	71	360	0
HLD	72	0	1	576
HLD	72	0	5	576
TAP	73	240	0
TAP	73	240	4
TAP	73	264	3
TAP	73	264	7
TAP	73	288	2
TAP	73	288	6
TAP	73	336	0
TAP	73	336	4
TAP	74	0	5
STR	74	48	5
SCL	74	48	5	96	96	2
TAP	74	96	2
STR	74	144	2
SCL	74	144	2	96	96	7
STR	74	240	7
SCL	74	240	7	96	96	4
TAP	74	336	4
TAP	75	0	3
TAP	75	48	2
TAP	75	96	1
STR	75	144	0
SCR	75	144	0	96	96	3
STR	75	240	3
SCR	75	240	3	96	96	6
TAP	75	336	6
TAP	76	0	7
TAP	76	48	0
TAP	76	96	1
TAP	76	144	2
STR	76	192	2
SCR	76	192	2	96	48	5
TAP	76	288	6
TAP	76	304	7
TAP	76	320	0
TAP	76	336	1
TAP	77	48	3
TAP	77	48	4
TAP	77	144	5
TAP	77	144	7
TAP	77	240	0
TAP	77	240	2
TAP	77	336	1
TAP	77	336	6
STR	78	0	2
SCR	78	0	2	96	72	5
STR	78	48	4
SCR	78	48	4	96	72	7
STR	78	96	6
SCR	78	96	6	96	72	1
TAP	78	144	1
STR	78	240	5
SCL	78	240	5	96	72	2
STR	78	288	3
SCL	78	288	3	96	72	0
STR	78	336	1
SCL	78	336	1	96	72	6
TAP	79	0	6
TAP	79	192	0
STR	79	240	1
SI_	79	240	1	96	48	5
TAP	79	336	7
STR	80	0	6
SI_	80	0	6	96	48	2
TAP	80	192	1
TAP	80	240	3
TAP	80	288	4
TAP	80	336	6
TAP	81	48	1
TAP	81	48	3
TAP	81	144	4
TAP	81	144	6
TAP	81	240	0
TAP	81	240	2
TAP	81	336	5
TAP	81	336	7
TAP	82	0	6
STR	82	48	5
SI_	82	48	5	96	48	2
STR	82	144	1
SI_	82	144	1	96	48	6
TAP	82	144	5
TAP	82	240	1
STR	82	240	4
SI_	82	240	4	96	48	7
STR	82	336	0
SI_	82	336	0	96	48	3
TAP	82	336	4
TAP	83	48	0
STR	83	48	7
SI_	83	48	7	96	24	3
TAP	83	144	3
TAP	83	144	7
STR	83	192	0
SI_	83	192	0	96	48	3
STR	83	192	4
SI_	83	192	4	96	48	7
TAP	83	216	1
TAP	83	216	5
TAP	83	240	2
TAP	83	240	6
TAP	83	288	0
TAP	83	288	4
STR	84	0	0
SI_	84	0	0	96	48	4
TAP	84	48	7
STR	84	96	6
SI_	84	96	6	96	48	2
TAP	84	144	5
STR	84	192	4
SI_	84	192	4	96	48	0
TAP	84	240	3
TAP	84	288	2
TAP	84	336	1
TAP	85	0	0
TAP	85	24	7
TAP	85	48	1
TAP	85	72	6
TAP	85	96	0
TAP	85	120	7
TAP	85	144	1
TAP	85	168	6
TAP	85	192	2
TAP	85	216	5
TAP	85	240	3
TAP	85	264	4
TAP	85	288	2
TAP	85	312	5
TAP	85	336	3
TAP	85	360	4
HLD	86	0	2	0
HLD	86	24	5	0
HLD	86	48	1	0
HLD	86	72	6	0
HLD	86	96	0	0
HLD	86	120	7	0
HLD	86	144	1	0
HLD	86	168	6	0
HLD	86	192	2	0
HLD	86	216	5	0
HLD	86	240	3	0
HLD	86	264	4	0
HLD	86	288	2	0
HLD	86	312	6	0
HLD	86	336	3	0
HLD	86	360	7	0
HLD	87	0	1	0
HLD	87	24	6	0
HLD	87	48	2	0
HLD	87	72	5	0
HLD	87	96	0	0
HLD	87	120	4	0
HLD	87	144	7	0
HLD	87	168	3	0
HLD	87	192	2	0
HLD	87	192	6	0
HLD	87	216	3	0
HLD	87	216	7	0
HLD	87	240	0	0
HLD	87	240	4	0
HLD	87	264	1	0
HLD	87	264	5	0
HLD	87	288	2	0
STR	87	288	6
SI_	87	288	6	96	1152	2
HLD	87	312	3	0
HLD	87	312	7	0
HLD	87	336	0	0
HLD	87	336	4	0
HLD	87	360	1	0
HLD	87	360	5	0
HLD	88	0	2	0
HLD	88	0	6	0

T_REC_TAP	567
T_REC_BRK	2
T_REC_XTP	0
T_REC_HLD	53
T_REC_XHO	0
T_REC_STR	133
T_REC_BST	0
T_REC_XST	0
T_REC_TTP	0
T_REC_THO	0
T_REC_SLD	133
T_REC_ALL	888
T_NUM_TAP	700
T_NUM_BRK	2
T_NUM_HLD	53
T_NUM_SLD	133
T_NUM_ALL	888
T_JUDGE_TAP	702
T_JUDGE_HLD	101
T_JUDGE_SLD	133
T_JUDGE_ALL	936
TTM_EACHPAIRS	98
TTM_SCR_TAP	350000
TTM_SCR_BRK	5200
TTM_SCR_HLD	53000
TTM_SCR_SLD	199500
TTM_SCR_ALL	607700
TTM_SCR_S	589300
TTM_SCR_SS	607500
TTM_RAT_ACV	10003

