VERSION	0.00.00	1.03.00
FES_MODE	0
BPM_DEF	193.000	193.000	193.000	193.000
MET_DEF	4	4
RESOLUTION	384
CLK_DEF	384
COMPATIBLE_CODE	MA2

BPM	0	0	193.000
MET	0	0	4	4

TAP	1	0	2
TAP	1	48	3
TAP	1	96	4
TAP	1	144	5
TAP	1	288	7
TAP	1	336	7
TAP	2	48	0
TAP	2	96	0
TAP	2	192	1
TAP	2	192	6
TAP	3	0	3
TAP	3	48	4
TAP	3	96	3
TAP	3	192	2
TAP	3	192	5
TAP	3	288	2
TAP	3	336	3
TAP	4	48	2
TAP	4	48	5
TAP	4	144	5
TAP	4	192	4
TAP	4	288	3
TAP	4	288	4
TAP	5	0	6
TAP	5	48	7
TAP	5	96	0
TAP	5	144	1
TAP	5	288	2
TAP	5	336	4
TAP	6	48	5
TAP	6	96	3
TAP	6	192	2
TAP	6	192	5
TAP	7	0	7
TAP	7	48	0
TAP	7	96	7
TAP	7	192	1
TAP	7	192	6
TAP	7	288	7
TAP	7	336	0
TAP	8	48	1
TAP	8	96	6
TAP	8	144	0
STR	8	192	7
SI_	8	192	7	96	48	3
HLD	9	0	2	48
HLD	9	0	4	48
HLD	9	96	0	48
HLD	9	96	6	48
HLD	9	192	1	144
HLD	9	192	7	144
TAP	10	48	2
TAP	10	48	3
TAP	10	144	1
TAP	10	144	4
TAP	10	192	2
TAP	10	192	3
HLD	11	0	3	48
HLD	11	0	5	48
HLD	11	96	1	48
HLD	11	96	7	48
HLD	11	192	0	144
HLD	11	192	6	144
TAP	12	48	4
TAP	12	48	5
TAP	12	144	3
TAP	12	144	6
TAP	12	192	4
TAP	12	192	5
HLD	13	0	1	48
HLD	13	0	3	48
HLD	13	96	5	48
HLD	13	96	7	48
HLD	13	192	2	144
HLD	13	192	6	144
TAP	14	48	1
TAP	14	48	6
TAP	14	144	0
TAP	14	144	7
TAP	14	192	1
TAP	14	192	6
TAP	15	0	0
TAP	15	0	1
TAP	15	96	6
TAP	15	96	7
TAP	15	192	2
TAP	15	192	3
TAP	15	240	2
TAP	15	240	3
TAP	15	336	4
TAP	15	336	5
TAP	16	0	4
TAP	16	0	5
TAP	16	96	0
TAP	16	96	7
TAP	16	144	0
TAP	16	144	7
TAP	16	240	2
TAP	16	240	5
STR	17	0	0
SUL	17	0	0	96	48	3
TAP	17	96	6
STR	17	192	7
SUR	17	192	7	96	48	4
TAP	17	288	1
TAP	18	0	0
TAP	18	96	1
TAP	18	192	2
TAP	18	288	6
STR	18	336	7
SI_	18	336	7	96	48	1
TAP	19	48	2
TAP	19	144	5
TAP	19	192	4
TAP	19	288	2
TAP	19	288	7
TAP	20	0	7
TAP	20	96	6
TAP	20	192	5
TAP	20	288	1
STR	20	336	0
SI_	20	336	0	96	48	6
TAP	21	48	5
TAP	21	144	2
TAP	21	192	3
TAP	21	288	0
TAP	21	288	5
TAP	22	0	7
TAP	22	96	2
TAP	22	192	5
TAP	22	288	2
STR	22	336	2
SI_	22	336	2	96	48	5
TAP	23	48	7
TAP	23	144	4
TAP	23	192	4
TAP	23	288	1
TAP	23	288	6
TAP	24	0	3
TAP	24	96	6
TAP	24	192	1
TAP	24	288	6
STR	24	336	6
SI_	24	336	6	96	48	1
TAP	25	48	0
TAP	25	144	3
TAP	25	192	3
TAP	25	288	1
TAP	25	288	6
TAP	26	0	6
TAP	26	48	7
TAP	26	96	5
TAP	26	192	2
TAP	26	192	3
TAP	26	288	5
TAP	26	336	4
TAP	27	48	2
TAP	27	48	7
TAP	27	144	0
TAP	27	144	1
STR	27	192	7
SCL	27	192	7	96	48	3
TAP	27	288	0
TAP	28	0	1
TAP	28	48	0
TAP	28	96	2
TAP	28	192	4
TAP	28	192	5
TAP	28	288	2
TAP	28	336	3
TAP	29	48	0
TAP	29	48	5
TAP	29	144	6
TAP	29	144	7
STR	29	192	0
SCR	29	192	0	96	48	4
TAP	29	288	7
TAP	30	0	3
TAP	30	0	5
TAP	30	48	2
TAP	30	48	6
TAP	30	96	1
TAP	30	96	7
TAP	30	192	0
TAP	30	192	4
TAP	30	288	1
STR	30	336	1
SI_	30	336	1	96	48	5
TAP	31	48	6
TAP	31	144	7
TAP	31	192	0
TAP	31	192	6
TAP	31	288	1
TAP	31	288	5
HLD	32	0	3	384
TAP	32	96	5
TAP	32	240	1
TAP	33	0	7
TAP	33	96	4
TAP	33	144	4
TAP	33	192	3
TAP	33	240	3
TAP	33	336	5
HLD	34	0	4	48
HLD	34	0	6	48
HLD	34	96	1	48
HLD	34	96	3	48
TAP	34	192	6
TAP	34	192	7
TAP	34	288	1
TAP	34	336	0
TAP	35	48	6
STR	35	96	7
SV_	35	96	7	96	48	2
STR	35	192	0
SV_	35	192	0	96	48	5
HLD	36	0	1	48
HLD	36	0	3	48
HLD	36	96	4	48
HLD	36	96	6	48
TAP	36	192	0
TAP	36	192	1
TAP	36	288	6
TAP	36	336	7
TAP	37	48	1
STR	37	96	0
SV_	37	96	0	96	48	5
STR	37	192	7
SV_	37	192	7	96	48	2
HLD	38	0	1	48
HLD	38	0	7	48
HLD	38	96	0	48
HLD	38	96	6	48
TAP	38	192	3
TAP	38	192	4
TAP	38	288	1
TAP	38	336	0
TAP	39	48	5
STR	39	96	4
SV_	39	96	4	96	48	1
STR	39	192	3
SV_	39	192	3	96	48	6
HLD	40	0	0	48
HLD	40	0	6	48
HLD	40	96	1	48
HLD	40	96	7	48
TAP	40	192	3
TAP	40	192	4
TAP	40	288	6
TAP	40	336	7
TAP	41	48	2
TAP	41	96	1
TAP	41	96	3
TAP	41	192	0
TAP	41	240	1
TAP	41	240	7
TAP	41	336	6
TAP	42	0	0
TAP	42	0	7
TAP	42	48	0
TAP	42	48	7
TAP	42	96	3
TAP	42	96	4
TAP	42	144	3
TAP	42	144	4
TAP	42	192	1
TAP	42	192	6
STR	42	336	1
SI_	42	336	1	96	48	4
TAP	43	48	0
TAP	43	144	6
STR	43	192	6
SI_	43	192	6	96	48	3
TAP	43	288	7
HLD	44	0	2	48
HLD	44	0	4	48
HLD	44	96	0	48
HLD	44	96	6	48
TAP	44	192	1
TAP	44	192	6
TAP	44	288	6
STR	44	336	7
SCL	44	336	7	96	48	3
TAP	45	48	0
TAP	45	96	1
STR	45	192	6
SI_	45	192	6	96	48	4
STR	45	192	7
SI_	45	192	7	96	48	3
HLD	46	0	3	48
HLD	46	0	5	48
HLD	46	96	1	48
HLD	46	96	7	48
TAP	46	192	2
TAP	46	192	5
TAP	46	288	1
STR	46	336	0
SCR	46	336	0	96	48	4
TAP	47	48	7
TAP	47	96	6
STR	47	192	0
SI_	47	192	0	96	48	4
STR	47	192	1
SI_	47	192	1	96	48	3
TAP	48	0	1
TAP	48	48	4
TAP	48	96	6
TAP	48	144	3
TAP	48	192	0
TAP	48	192	7
TAP	48	288	2
TAP	48	288	3
TAP	48	336	1
TAP	48	336	4
TAP	49	48	4
TAP	49	48	5
TAP	49	96	3
TAP	49	96	6
TAP	49	192	2
TAP	49	224	3
TAP	49	256	2
TAP	49	288	5
TAP	49	320	4
TAP	49	352	5
HLD	50	0	1	192
TAP	51	0	3
TAP	51	96	3
HLD	52	0	7	192
TAP	53	0	5
TAP	53	96	5
HLD	54	0	6	192
TAP	55	0	4
TAP	55	96	4
STR	56	0	0
SCL	56	0	0	96	48	5
STR	56	192	7
SCR	56	192	7	96	48	2
TAP	57	0	3
TAP	57	0	4
STR	57	192	2
SI_	57	192	2	96	48	5
BRK	57	288	0
BRK	57	336	0
TAP	58	48	4
TAP	58	96	3
TAP	58	96	5
STR	58	192	0
SI_	58	192	0	96	48	5
STR	58	240	5
SUR	58	240	5	96	48	2
TAP	59	48	7
TAP	59	96	0
TAP	59	96	6
TAP	59	192	7
TAP	59	240	0
TAP	59	240	6
TAP	59	288	1
TAP	59	288	5
STR	60	0	3
SCL	60	0	3	96	48	0
TAP	60	48	7
TAP	60	96	6
TAP	60	144	5
STR	60	192	4
SCR	60	192	4	96	48	7
TAP	60	240	1
TAP	60	288	2
TAP	60	336	3
TAP	61	48	5
STR	61	96	4
SCL	61	96	4	96	48	1
TAP	61	144	5
TAP	61	192	6
TAP	61	240	7
TAP	61	288	0
TAP	62	0	3
TAP	62	48	2
TAP	62	48	4
TAP	62	96	1
TAP	62	96	5
STR	62	192	7
SI_	62	192	7	96	48	2
STR	62	240	2
SUL	62	240	2	96	48	5
TAP	63	48	0
TAP	63	96	1
TAP	63	96	7
TAP	63	192	0
TAP	63	240	1
TAP	63	240	7
TAP	63	288	2
TAP	63	288	6
STR	64	0	4
SCR	64	0	4	96	48	7
TAP	64	48	0
TAP	64	96	1
TAP	64	144	2
STR	64	192	3
SCL	64	192	3	96	48	0
TAP	64	240	6
TAP	64	288	5
TAP	64	336	4
TAP	65	48	2
STR	65	96	3
SCR	65	96	3	96	48	6
TAP	65	144	2
TAP	65	192	1
TAP	65	240	0
TAP	65	288	7
TAP	66	0	0
TAP	66	0	7
TAP	66	48	0
STR	66	48	7
SI_	66	48	7	96	48	3
STR	66	144	1
SI_	66	144	1	96	48	5
STR	66	240	6
SI_	66	240	6	96	48	2
TAP	66	336	0
TAP	67	48	1
TAP	67	48	6
TAP	67	144	3
TAP	67	144	7
TAP	67	192	2
TAP	67	192	6
TAP	67	240	1
TAP	67	240	5
BRK	67	288	0
BRK	67	288	4
TAP	68	0	3
TAP	68	0	4
STR	68	48	3
SI_	68	48	3	96	48	7
STR	68	144	5
SI_	68	144	5	96	48	1
STR	68	240	2
SI_	68	240	2	96	48	6
TAP	68	336	4
TAP	69	48	2
TAP	69	48	5
TAP	69	144	0
TAP	69	144	4
TAP	69	192	1
TAP	69	192	5
TAP	69	240	2
TAP	69	240	6
BRK	69	288	3
BRK	69	288	7
TAP	70	0	2
TAP	70	48	3
TAP	70	96	0
TAP	70	96	1
TAP	70	192	5
TAP	70	240	4
TAP	70	288	6
HLD	70	336	7	96
TAP	71	48	0
HLD	71	96	0	96
TAP	71	192	1
TAP	71	240	2
TAP	71	288	3
STR	72	0	3
SCL	72	0	3	96	384	4
STR	72	0	4
SUL	72	0	4	96	384	3
TAP	73	240	0
TAP	73	264	7
TAP	73	288	0
TAP	73	336	6
TAP	74	0	0
TAP	74	0	7
STR	74	48	1
SI_	74	48	1	96	48	4
TAP	74	48	6
STR	74	144	5
SI_	74	144	5	96	48	0
TAP	74	240	3
TAP	74	336	2
HLD	75	0	2	144
HLD	75	144	0	96
HLD	75	240	6	96
TAP	75	336	4
TAP	76	48	3
TAP	76	72	4
TAP	76	96	3
TAP	76	144	5
HLD	76	192	3	96
HLD	76	192	6	96
HLD	76	336	1	96
HLD	77	48	3	96
HLD	77	144	5	96
TAP	77	240	7
TAP	77	288	7
TAP	78	0	0
TAP	78	0	7
TAP	78	48	1
STR	78	48	6
SI_	78	48	6	96	48	3
STR	78	144	2
SI_	78	144	2	96	48	7
TAP	78	240	4
TAP	78	336	5
HLD	79	0	5	192
TAP	79	192	4
TAP	79	240	5
TAP	79	336	2
STR	80	0	3
SUR	80	0	3	96	192	6
TAP	81	0	0
TAP	81	0	1
HLD	81	48	2	96
TAP	81	48	7
HLD	81	144	3	96
HLD	81	240	6	96
TAP	81	336	7
STR	82	0	4
SV_	82	0	4	96	48	7
STR	82	48	5
SV_	82	48	5	96	48	2
TAP	82	240	0
TAP	82	240	7
TAP	82	336	1
TAP	82	336	6
TAP	83	48	5
TAP	83	72	4
TAP	83	96	5
TAP	83	144	3
TAP	83	192	4
TAP	83	240	7
TAP	83	288	0
STR	84	0	3
SV_	84	0	3	96	48	0
STR	84	48	2
SV_	84	48	2	96	48	5
TAP	84	240	3
TAP	84	240	4
TAP	84	336	2
TAP	84	336	5
TAP	85	48	2
TAP	85	72	3
TAP	85	96	2
TAP	85	144	4
TAP	85	192	1
TAP	85	192	6
TAP	86	0	5
TAP	86	24	4
TAP	86	48	5
TAP	86	72	4
TAP	86	96	5
TAP	86	144	2
TAP	86	168	3
TAP	86	192	2
TAP	86	216	3
TAP	86	240	2
TAP	86	288	1
TAP	86	288	6
TAP	87	0	0
TAP	87	24	7
TAP	87	48	0
TAP	87	72	7
TAP	87	96	0
TAP	87	120	7
TAP	87	144	0
TAP	87	168	7
TAP	87	192	0
TAP	87	216	7
TAP	87	240	0
TAP	87	264	7
TAP	87	288	0
TAP	87	312	7
TAP	87	336	0
STR	87	360	7
SUR	87	360	7	96	504	0
STR	88	0	0
SCR	88	0	0	96	480	7

T_REC_TAP	397
T_REC_BRK	6
T_REC_XTP	0
T_REC_HLD	60
T_REC_XHO	0
T_REC_STR	56
T_REC_BST	0
T_REC_XST	0
T_REC_TTP	0
T_REC_THO	0
T_REC_SLD	56
T_REC_ALL	575
T_NUM_TAP	453
T_NUM_BRK	6
T_NUM_HLD	60
T_NUM_SLD	56
T_NUM_ALL	575
T_JUDGE_TAP	459
T_JUDGE_HLD	105
T_JUDGE_SLD	56
T_JUDGE_ALL	620
TTM_EACHPAIRS	119
TTM_SCR_TAP	226500
TTM_SCR_BRK	15600
TTM_SCR_HLD	60000
TTM_SCR_SLD	84000
TTM_SCR_ALL	386100
TTM_SCR_S	373950
TTM_SCR_SS	385500
TTM_RAT_ACV	10015

