VERSION	0.00.00	1.03.00
FES_MODE	0
BPM_DEF	193.000	193.000	193.000	193.000
MET_DEF	4	4
RESOLUTION	384
CLK_DEF	384
COMPATIBLE_CODE	MA2

BPM	0	0	193.000
MET	0	0	4	4

STR	1	0	3
SCL	1	0	3	96	864	4
STR	5	0	4
SCR	5	0	4	96	864	3
TAP	8	192	3
TAP	8	192	4
TAP	9	0	3
TAP	9	96	3
TAP	9	192	2
TAP	9	192	4
TAP	10	0	4
TAP	10	96	4
TAP	10	192	3
TAP	10	192	5
TAP	11	0	3
TAP	11	96	3
TAP	11	192	2
TAP	11	192	4
TAP	12	0	4
TAP	12	96	4
TAP	12	192	3
TAP	12	192	5
TAP	13	0	2
TAP	13	96	2
TAP	13	192	1
TAP	13	192	3
TAP	14	0	5
TAP	14	96	5
TAP	14	192	4
TAP	14	192	6
TAP	15	0	2
TAP	15	96	2
TAP	15	192	3
TAP	15	288	3
TAP	16	0	5
TAP	16	96	5
TAP	16	192	4
TAP	16	288	4
STR	17	0	3
SI_	17	0	3	96	144	0
STR	17	0	4
SI_	17	0	4	96	144	7
TAP	18	0	0
TAP	18	96	0
TAP	18	192	1
TAP	18	288	2
TAP	18	288	3
TAP	19	0	7
TAP	19	96	7
TAP	19	192	6
TAP	19	288	4
TAP	19	288	5
TAP	20	0	0
TAP	20	96	0
TAP	20	192	1
TAP	20	288	2
TAP	20	288	3
TAP	21	0	7
TAP	21	96	7
TAP	21	192	6
TAP	21	288	4
TAP	21	288	5
TAP	22	0	1
TAP	22	96	0
TAP	22	192	1
TAP	22	288	2
TAP	22	288	3
TAP	23	0	6
TAP	23	96	7
TAP	23	192	6
TAP	23	288	4
TAP	23	288	5
TAP	24	0	1
TAP	24	96	0
TAP	24	192	1
TAP	24	288	2
TAP	24	288	3
TAP	25	0	5
TAP	25	96	4
TAP	25	192	5
TAP	25	288	3
TAP	25	288	6
TAP	26	0	7
TAP	26	96	6
TAP	26	192	4
TAP	26	192	5
TAP	26	288	3
TAP	26	288	6
TAP	27	0	0
TAP	27	96	1
TAP	27	192	2
TAP	27	192	3
TAP	27	288	1
TAP	27	288	4
TAP	28	0	7
TAP	28	96	6
TAP	28	192	4
TAP	28	192	5
TAP	28	288	3
TAP	28	288	6
TAP	29	0	0
TAP	29	96	1
TAP	29	192	2
TAP	29	192	3
TAP	29	288	1
TAP	29	288	4
TAP	30	0	3
TAP	30	96	2
TAP	30	192	0
TAP	30	192	1
TAP	30	288	2
TAP	30	288	7
TAP	31	0	4
TAP	31	96	5
TAP	31	192	6
TAP	31	192	7
TAP	31	288	0
TAP	31	288	5
TAP	32	0	3
TAP	32	96	2
TAP	32	192	0
TAP	32	192	1
TAP	32	288	2
TAP	32	288	7
TAP	33	0	4
TAP	33	96	3
TAP	33	192	2
TAP	33	192	5
TAP	34	0	4
HLD	34	0	5	576
TAP	34	192	3
TAP	35	0	4
TAP	35	96	4
TAP	35	192	4
HLD	36	0	2	576
TAP	36	0	3
TAP	36	192	4
TAP	37	0	3
TAP	37	96	3
TAP	37	192	3
HLD	38	0	6	576
TAP	38	0	7
TAP	38	192	0
TAP	39	0	7
TAP	39	96	7
TAP	39	192	7
TAP	40	0	0
HLD	40	0	1	576
TAP	40	192	7
TAP	41	0	0
TAP	41	96	0
TAP	41	192	0
BRK	42	0	3
BRK	42	0	4
TAP	42	192	1
TAP	42	192	6
TAP	43	0	0
TAP	43	96	7
TAP	43	192	1
TAP	43	192	6
TAP	44	0	4
TAP	44	0	5
TAP	44	96	4
TAP	44	96	5
TAP	44	192	3
TAP	44	192	6
TAP	45	0	7
TAP	45	96	0
TAP	45	192	1
TAP	45	192	6
TAP	46	0	2
TAP	46	0	3
TAP	46	96	2
TAP	46	96	3
TAP	46	192	1
TAP	46	192	4
TAP	47	0	0
TAP	47	96	7
TAP	47	192	1
TAP	47	192	6
TAP	48	0	3
TAP	48	0	4
TAP	48	96	3
TAP	48	96	4
TAP	48	192	2
TAP	48	192	5
TAP	49	0	0
TAP	49	0	7
TAP	49	96	1
TAP	49	96	6
TAP	49	192	2
TAP	49	192	5
STR	50	0	6
SI_	50	0	6	96	192	3
STR	51	0	1
SI_	51	0	1	96	192	4
STR	52	0	7
SI_	52	0	7	96	192	3
STR	53	0	0
SI_	53	0	0	96	192	4
STR	54	0	7
SSR	54	0	7	96	480	3
TAP	56	0	3
TAP	56	0	4
BRK	57	192	1
BRK	57	192	6
TAP	58	0	4
TAP	58	0	5
TAP	58	96	3
TAP	58	96	6
HLD	58	192	2	96
TAP	58	288	3
TAP	59	0	2
TAP	59	0	3
TAP	59	96	1
TAP	59	96	4
HLD	59	192	5	96
TAP	59	288	4
TAP	60	0	4
TAP	60	0	5
TAP	60	96	3
TAP	60	96	6
HLD	60	192	2	96
TAP	60	288	3
TAP	61	0	2
TAP	61	0	3
TAP	61	96	1
TAP	61	96	4
HLD	61	192	5	96
TAP	61	288	4
TAP	62	0	6
TAP	62	0	7
TAP	62	96	0
TAP	62	96	5
HLD	62	192	1	96
TAP	62	288	0
TAP	63	0	0
TAP	63	0	1
TAP	63	96	2
TAP	63	96	7
HLD	63	192	6	96
TAP	63	288	7
TAP	64	0	6
TAP	64	0	7
TAP	64	96	0
TAP	64	96	5
HLD	64	192	1	96
TAP	64	288	0
STR	65	0	7
SI_	65	0	7	96	192	3
STR	66	0	1
SSR	66	0	1	96	480	5
TAP	68	0	5
TAP	68	96	4
TAP	68	96	6
TAP	68	192	2
TAP	68	288	1
TAP	68	288	3
TAP	69	0	5
TAP	69	96	4
TAP	69	96	6
TAP	69	192	2
TAP	69	288	1
TAP	69	288	3
TAP	70	0	6
TAP	70	96	5
TAP	70	96	7
TAP	70	192	1
TAP	70	288	0
TAP	70	288	2
TAP	71	0	6
TAP	71	96	5
TAP	71	96	7
TAP	71	192	1
TAP	71	288	0
TAP	71	288	2
STR	72	0	7
SCL	72	0	7	96	480	0
HLD	74	0	5	192
HLD	74	192	4	192
HLD	75	0	3	192
TAP	75	192	2
TAP	75	288	2
HLD	76	0	2	192
HLD	76	192	3	192
HLD	77	0	4	192
TAP	77	192	5
TAP	77	288	5
HLD	78	0	6	192
HLD	78	192	7	192
HLD	79	0	0	192
TAP	79	192	1
TAP	79	288	1
HLD	80	0	1	192
HLD	80	192	0	192
HLD	81	0	7	192
TAP	81	192	6
HLD	82	0	5	288
TAP	82	96	4
TAP	82	192	4
TAP	82	288	3
HLD	83	0	2	288
TAP	83	96	3
TAP	83	192	3
TAP	83	288	4
HLD	84	0	5	288
TAP	84	96	4
TAP	84	192	4
TAP	84	288	3
HLD	85	0	2	288
TAP	85	96	3
TAP	85	192	3
TAP	85	288	4
HLD	86	0	6	288
TAP	86	96	7
TAP	86	192	7
TAP	86	288	0
HLD	87	0	1	288
TAP	87	96	0
TAP	87	192	0
TAP	87	288	7
BRK	88	0	0
BRK	88	0	7

T_REC_TAP	264
T_REC_BRK	6
T_REC_XTP	0
T_REC_HLD	29
T_REC_XHO	0
T_REC_STR	12
T_REC_BST	0
T_REC_XST	0
T_REC_TTP	0
T_REC_THO	0
T_REC_SLD	12
T_REC_ALL	323
T_NUM_TAP	276
T_NUM_BRK	6
T_NUM_HLD	29
T_NUM_SLD	12
T_NUM_ALL	323
T_JUDGE_TAP	282
T_JUDGE_HLD	146
T_JUDGE_SLD	12
T_JUDGE_ALL	440
TTM_EACHPAIRS	77
TTM_SCR_TAP	138000
TTM_SCR_BRK	15600
TTM_SCR_HLD	29000
TTM_SCR_SLD	18000
TTM_SCR_ALL	200600
TTM_SCR_S	194000
TTM_SCR_SS	200000
TTM_RAT_ACV	10030

