VERSION	0.00.00	1.03.00
FES_MODE	0
BPM_DEF	193.000	193.000	193.000	193.000
MET_DEF	4	4
RESOLUTION	384
CLK_DEF	384
COMPATIBLE_CODE	MA2

BPM	0	0	193.000
MET	0	0	4	4

STR	1	0	0
SI_	1	0	0	96	288	3
STR	5	0	7
SI_	5	0	7	96	288	4
TAP	9	0	0
TAP	9	96	0
TAP	9	192	0
TAP	10	0	0
TAP	10	0	1
TAP	10	192	0
TAP	10	192	1
TAP	11	0	7
TAP	11	96	7
TAP	11	192	7
TAP	12	0	6
TAP	12	0	7
TAP	12	192	6
TAP	12	192	7
TAP	13	0	0
TAP	13	96	0
TAP	13	192	0
TAP	14	0	0
TAP	14	0	1
TAP	14	192	0
TAP	14	192	1
HLD	15	0	7	384
TAP	17	0	0
TAP	17	96	0
BRK	17	192	0
TAP	18	0	7
TAP	18	96	7
TAP	18	192	7
TAP	19	0	6
TAP	19	96	6
TAP	19	192	6
TAP	20	0	5
TAP	20	96	5
TAP	20	192	5
TAP	21	0	4
TAP	21	96	4
TAP	21	192	4
TAP	22	0	3
TAP	22	96	3
TAP	22	192	3
TAP	23	0	2
TAP	23	96	2
TAP	23	192	2
TAP	24	0	1
TAP	24	96	1
TAP	24	192	1
HLD	25	0	0	192
TAP	26	0	0
TAP	26	96	0
TAP	26	192	0
TAP	27	0	1
TAP	27	96	1
TAP	27	192	1
TAP	28	0	2
TAP	28	96	2
TAP	28	192	2
TAP	29	0	3
TAP	29	96	3
TAP	29	192	3
TAP	30	0	4
TAP	30	96	4
TAP	30	192	4
TAP	31	0	5
TAP	31	96	5
TAP	31	192	5
TAP	32	0	6
TAP	32	96	6
TAP	32	192	6
HLD	33	0	7	192
TAP	34	0	6
TAP	34	96	6
TAP	35	0	6
TAP	35	96	6
TAP	36	0	4
TAP	36	96	4
TAP	37	0	4
TAP	37	96	4
TAP	38	0	2
TAP	38	96	2
TAP	39	0	2
TAP	39	96	2
TAP	40	0	0
TAP	40	96	0
TAP	41	0	0
TAP	41	96	0
TAP	42	0	0
TAP	42	0	1
TAP	42	96	0
TAP	42	96	1
TAP	43	0	1
TAP	43	96	1
TAP	44	0	3
TAP	44	96	3
TAP	45	0	3
TAP	45	96	3
TAP	46	0	5
TAP	46	96	5
TAP	47	0	5
TAP	47	96	5
TAP	48	0	7
TAP	48	96	7
TAP	49	0	7
TAP	49	96	7
STR	50	0	0
SI_	50	0	0	96	288	5
STR	52	0	7
SI_	52	0	7	96	288	2
STR	54	0	1
SI_	54	0	1	96	288	5
TAP	56	0	3
TAP	56	0	4
TAP	56	192	2
TAP	56	192	5
TAP	57	0	1
TAP	57	0	6
BRK	57	192	0
BRK	57	192	7
TAP	58	0	0
TAP	58	96	0
TAP	58	192	1
TAP	58	288	1
TAP	59	0	2
TAP	59	96	2
TAP	59	192	3
TAP	59	288	3
TAP	60	0	4
TAP	60	96	4
TAP	60	192	5
TAP	60	288	5
TAP	61	0	6
TAP	61	96	6
TAP	61	192	0
TAP	61	192	7
TAP	62	0	7
TAP	62	96	7
TAP	62	192	6
TAP	62	288	6
TAP	63	0	5
TAP	63	96	5
TAP	63	192	4
TAP	63	288	4
TAP	64	0	3
TAP	64	96	3
TAP	64	192	2
TAP	64	288	2
TAP	65	0	1
TAP	65	96	1
TAP	65	192	0
TAP	65	192	7
STR	66	0	0
SI_	66	0	0	96	288	3
STR	66	0	7
SI_	66	0	7	96	288	4
TAP	68	0	0
TAP	68	96	0
TAP	68	192	1
TAP	68	288	1
TAP	69	0	2
TAP	69	96	2
TAP	69	192	3
TAP	69	288	3
TAP	70	0	4
TAP	70	96	4
TAP	70	192	5
TAP	70	288	5
TAP	71	0	6
TAP	71	96	6
TAP	71	192	7
TAP	71	288	7
STR	72	0	0
SI_	72	0	0	96	288	4
TAP	74	0	5
TAP	74	96	5
TAP	74	192	4
TAP	74	192	5
TAP	75	0	4
TAP	75	96	4
TAP	75	192	4
TAP	75	192	5
TAP	76	0	3
TAP	76	96	3
TAP	76	192	2
TAP	76	192	3
TAP	77	0	2
TAP	77	96	2
TAP	77	192	2
TAP	77	192	3
TAP	78	0	1
TAP	78	96	1
TAP	78	192	0
TAP	78	192	1
TAP	79	0	0
TAP	79	96	0
TAP	79	192	0
TAP	79	192	1
TAP	80	0	7
TAP	80	96	7
TAP	80	192	6
TAP	80	192	7
TAP	81	0	6
TAP	81	96	6
TAP	81	192	6
TAP	81	192	7
TAP	82	0	7
TAP	82	96	7
TAP	82	192	0
TAP	82	288	0
TAP	83	0	1
TAP	83	96	1
TAP	83	192	2
TAP	83	288	2
TAP	84	0	3
TAP	84	96	3
TAP	84	192	4
TAP	84	288	4
TAP	85	0	5
TAP	85	96	5
TAP	85	192	6
TAP	85	192	7
TAP	86	0	7
TAP	86	96	6
TAP	86	192	5
TAP	86	288	4
TAP	87	0	3
TAP	87	96	2
TAP	87	192	1
TAP	87	288	0
STR	88	0	7
SI_	88	0	7	96	288	3

T_REC_TAP	209
T_REC_BRK	3
T_REC_XTP	0
T_REC_HLD	3
T_REC_XHO	0
T_REC_STR	9
T_REC_BST	0
T_REC_XST	0
T_REC_TTP	0
T_REC_THO	0
T_REC_SLD	9
T_REC_ALL	233
T_NUM_TAP	218
T_NUM_BRK	3
T_NUM_HLD	3
T_NUM_SLD	9
T_NUM_ALL	233
T_JUDGE_TAP	221
T_JUDGE_HLD	16
T_JUDGE_SLD	9
T_JUDGE_ALL	246
TTM_EACHPAIRS	24
TTM_SCR_TAP	109000
TTM_SCR_BRK	7800
TTM_SCR_HLD	3000
TTM_SCR_SLD	13500
TTM_SCR_ALL	133300
TTM_SCR_S	129050
TTM_SCR_SS	133000
TTM_RAT_ACV	10022

