VERSION	0.00.00	1.03.00
FES_MODE	0
BPM_DEF	134.000	134.000	134.000	134.000
MET_DEF	4	4
RESOLUTION	384
CLK_DEF	384
COMPATIBLE_CODE	MA2

BPM	0	0	134.000
MET	0	0	4	4

HLD	1	0	2	96
TAP	1	96	0
HLD	1	192	5	96
TAP	1	288	7
HLD	2	0	1	96
TAP	2	96	3
HLD	2	192	6	96
TAP	2	288	4
TAP	3	0	1
TAP	3	48	0
TAP	3	48	7
BRK	3	72	0
BRK	3	72	7
TAP	3	144	6
TAP	3	192	1
TAP	3	192	7
BRK	3	216	1
BRK	3	216	7
TAP	3	288	0
TAP	3	336	1
TAP	3	336	6
TAP	3	360	1
TAP	3	360	6
STR	4	0	0
SI_	4	0	0	96	48	2
TAP	4	48	0
STR	4	96	7
SI_	4	96	7	96	48	3
TAP	4	144	7
STR	4	192	0
SI_	4	192	0	96	48	4
TAP	4	240	0
STR	4	288	7
SI_	4	288	7	96	48	5
TAP	4	336	7
STR	5	0	0
SI_	5	0	0	96	48	4
TAP	5	48	0
STR	5	96	7
SI_	5	96	7	96	48	3
TAP	5	144	7
STR	5	192	0
SI_	5	192	0	96	48	2
TAP	5	240	0
STR	5	288	7
SI_	5	288	7	96	48	3
TAP	5	336	7
STR	6	0	0
SI_	6	0	0	96	48	4
TAP	6	48	0
STR	6	96	7
SI_	6	96	7	96	48	5
TAP	6	144	7
STR	6	192	0
SI_	6	192	0	96	48	4
TAP	6	240	0
STR	6	288	7
SI_	6	288	7	96	48	3
TAP	6	336	7
BRK	7	0	0
BRK	7	96	0
BRK	7	192	0
BRK	7	288	0
STR	8	0	3
SI_	8	0	3	96	48	0
STR	8	0	4
SI_	8	0	4	96	48	7
STR	9	0	1
SSR	9	0	1	96	96	5
TAP	9	48	1
STR	9	192	6
SSL	9	192	6	96	96	2
TAP	9	240	6
STR	10	0	1
SSL	10	0	1	96	96	5
TAP	10	48	1
STR	10	192	6
SSR	10	192	6	96	96	2
TAP	10	240	6
STR	11	0	1
SSR	11	0	1	96	96	5
TAP	11	48	1
STR	11	192	6
SSL	11	192	6	96	96	2
TAP	11	240	6
STR	12	0	1
SUL	12	0	1	96	192	6
TAP	12	48	1
HLD	12	96	1	192
STR	13	0	7
SSR	13	0	7	96	96	3
TAP	13	48	7
STR	13	192	0
SSL	13	192	0	96	96	4
TAP	13	240	0
STR	14	0	7
SSL	14	0	7	96	96	3
TAP	14	48	7
STR	14	192	0
SSR	14	192	0	96	96	4
TAP	14	240	0
STR	15	0	6
SUL	15	0	6	96	96	1
TAP	15	48	6
STR	15	192	2
SUL	15	192	2	96	96	5
TAP	15	240	2
STR	16	0	0
SUR	16	0	0	96	192	3
STR	17	0	7
SUR	17	0	7	96	96	5
STR	17	96	5
SUL	17	96	5	96	96	7
STR	17	192	7
SUR	17	192	7	96	96	5
TAP	17	288	5
STR	18	0	0
SUL	18	0	0	96	96	2
STR	18	96	2
SUR	18	96	2	96	96	0
STR	18	192	0
SUL	18	192	0	96	96	2
TAP	18	288	2
STR	19	0	6
SUR	19	0	6	96	96	4
STR	19	96	4
SUL	19	96	4	96	96	6
STR	19	192	6
SUR	19	192	6	96	96	4
TAP	19	288	4
STR	20	0	1
SUL	20	0	1	96	96	3
STR	20	96	3
SUR	20	96	3	96	96	1
STR	20	192	1
SUL	20	192	1	96	96	3
TAP	20	288	3
STR	21	0	0
SI_	21	0	0	96	48	4
STR	21	48	1
SI_	21	48	1	96	48	3
STR	21	192	7
SI_	21	192	7	96	48	3
STR	21	240	6
SI_	21	240	6	96	48	4
TAP	22	0	1
TAP	22	48	1
TAP	22	72	0
TAP	22	96	7
HLD	22	144	6	144
HLD	22	192	2	96
TAP	23	48	3
TAP	23	48	5
TAP	23	96	4
TAP	23	144	3
TAP	23	144	5
TAP	23	240	2
TAP	23	240	4
TAP	23	288	3
TAP	23	336	2
TAP	23	336	4
STR	24	0	5
SCL	24	0	5	96	48	2
STR	24	96	1
SCR	24	96	1	96	48	4
STR	24	192	6
SCL	24	192	6	96	48	3
TAP	25	48	0
TAP	25	48	2
TAP	25	96	1
TAP	25	144	0
TAP	25	144	2
TAP	25	192	6
TAP	25	240	5
TAP	25	240	7
TAP	25	288	6
TAP	25	336	5
TAP	25	336	7
HLD	26	0	6	288
TAP	26	96	7
HLD	26	192	7	96
HLD	27	0	6	672
TAP	27	48	7
TAP	27	96	7
TAP	27	144	7
STR	27	192	0
SCR	27	192	0	96	384	4
TAP	29	0	0
TAP	29	48	0
STR	29	96	0
SI_	29	96	0	96	48	3
STR	29	144	0
SI_	29	144	0	96	48	4
STR	29	192	0
SI_	29	192	0	96	48	2
TAP	30	0	7
TAP	30	48	7
STR	30	96	7
SI_	30	96	7	96	48	4
STR	30	144	7
SI_	30	144	7	96	48	5
STR	30	192	7
SI_	30	192	7	96	48	3
TAP	31	0	0
TAP	31	48	7
STR	31	96	0
SI_	31	96	0	96	48	2
STR	31	144	7
SI_	31	144	7	96	48	3
STR	31	192	0
SI_	31	192	0	96	48	4
TAP	32	0	7
TAP	32	48	0
STR	32	96	7
SI_	32	96	7	96	48	5
STR	32	144	0
SI_	32	144	0	96	48	4
STR	32	192	7
SI_	32	192	7	96	48	3
TAP	33	0	1
TAP	33	48	0
STR	33	96	1
SI_	33	96	1	96	48	3
STR	33	144	0
SI_	33	144	0	96	48	4
STR	33	192	1
SI_	33	192	1	96	48	5
TAP	34	0	6
TAP	34	48	7
STR	34	96	6
SI_	34	96	6	96	48	4
STR	34	144	7
SI_	34	144	7	96	48	3
STR	34	192	6
SI_	34	192	6	96	48	2
TAP	35	0	0
TAP	35	48	5
STR	35	96	0
SI_	35	96	0	96	48	5
STR	35	144	5
SCR	35	144	5	96	48	0
STR	35	192	0
SCR	35	192	0	96	48	3
TAP	36	0	7
TAP	36	48	2
STR	36	96	7
SI_	36	96	7	96	48	2
STR	36	144	2
SCL	36	144	2	96	48	7
STR	36	192	7
SCL	36	192	7	96	48	4
STR	37	0	0
SI_	37	0	0	96	48	6
STR	37	48	0
SI_	37	48	0	96	48	3
STR	37	96	0
SI_	37	96	0	96	48	5
STR	37	144	0
SI_	37	144	0	96	48	2
STR	37	192	0
SI_	37	192	0	96	48	4
STR	38	0	7
SI_	38	0	7	96	48	1
STR	38	48	7
SI_	38	48	7	96	48	4
STR	38	96	7
SI_	38	96	7	96	48	2
STR	38	144	7
SI_	38	144	7	96	48	5
STR	38	192	7
SI_	38	192	7	96	48	3
STR	39	0	0
SCL	39	0	0	96	72	5
STR	39	48	6
SCL	39	48	6	96	72	3
STR	39	96	4
SCL	39	96	4	96	72	1
STR	39	144	2
SCL	39	144	2	96	72	7
STR	40	0	7
SCR	40	0	7	96	72	2
STR	40	48	1
SCR	40	48	1	96	72	4
STR	40	96	3
SCR	40	96	3	96	72	6
STR	40	144	5
SCR	40	144	5	96	72	0
STR	41	0	1
SI_	41	0	1	96	48	3
TAP	41	48	1
STR	41	96	7
SI_	41	96	7	96	48	5
TAP	41	144	7
STR	41	192	0
SI_	41	192	0	96	48	3
STR	41	240	0
SI_	41	240	0	96	48	5
STR	42	0	0
SI_	42	0	0	96	48	2
TAP	42	48	0
STR	42	96	6
SI_	42	96	6	96	48	4
TAP	42	144	6
STR	42	192	7
SI_	42	192	7	96	48	2
STR	42	240	7
SI_	42	240	7	96	48	4
STR	43	0	0
SI_	43	0	0	96	48	2
STR	43	48	0
SI_	43	48	0	96	48	4
STR	43	96	0
SI_	43	96	0	96	48	3
STR	43	144	0
SI_	43	144	0	96	48	5
STR	43	192	0
SI_	43	192	0	96	48	4
STR	43	240	0
SI_	43	240	0	96	48	6
STR	43	288	0
SI_	43	288	0	96	48	3
STR	43	336	0
SI_	43	336	0	96	48	5
STR	44	0	0
SI_	44	0	0	96	48	2
STR	44	48	0
SI_	44	48	0	96	48	4
STR	44	96	0
SI_	44	96	0	96	48	3
STR	44	144	0
SI_	44	144	0	96	48	5
STR	44	192	0
SI_	44	192	0	96	48	4
TAP	44	240	0
BRK	44	288	0
STR	45	0	3
SI_	45	0	3	96	48	0
STR	45	0	4
SI_	45	0	4	96	48	7
TAP	45	48	3
TAP	45	48	4
BRK	45	72	3
BRK	45	72	4
TAP	45	192	1
TAP	45	216	6
TAP	45	240	0
TAP	45	264	7
TAP	45	288	0
TAP	45	312	7
TAP	45	336	1
TAP	45	360	6
TAP	46	0	2
TAP	46	24	5
TAP	46	48	3
TAP	46	72	4
TAP	46	96	3
TAP	46	120	4
TAP	46	144	2
TAP	46	168	5
TAP	46	192	3
TAP	46	216	4
TAP	46	240	3
TAP	46	264	4
TAP	46	288	2
TAP	46	312	5
TAP	46	336	3
TAP	46	360	4
TAP	47	0	3
TAP	47	72	5
TAP	47	96	4
TAP	47	192	4
TAP	47	264	2
TAP	47	288	3
BRK	48	0	4
BRK	48	0	5
BRK	48	96	2
BRK	48	96	3
BRK	48	192	6
BRK	48	192	7
BRK	48	288	0
BRK	48	288	1
STR	49	0	6
SI_	49	0	6	96	48	2
STR	49	48	7
SI_	49	48	7	96	48	3
TAP	49	96	6
TAP	49	144	7
STR	49	192	6
SI_	49	192	6	96	48	2
STR	49	240	7
SI_	49	240	7	96	48	3
TAP	49	288	6
TAP	49	336	7
STR	50	0	6
SCL	50	0	6	96	48	3
STR	50	72	7
SCR	50	72	7	96	48	2
TAP	50	240	6
TAP	50	264	7
TAP	50	288	0
STR	50	312	1
SCL	50	312	1	96	96	6
HLD	50	360	1	216
TAP	51	240	2
TAP	51	264	3
TAP	51	288	4
STR	51	312	5
SCL	51	312	5	96	96	2
HLD	51	360	5	216
STR	53	0	1
SI_	53	0	1	96	48	5
STR	53	48	0
SI_	53	48	0	96	48	4
TAP	53	96	1
TAP	53	144	0
STR	53	192	1
SI_	53	192	1	96	48	5
STR	53	240	0
SI_	53	240	0	96	48	4
TAP	53	288	1
TAP	53	336	0
STR	54	0	1
SCR	54	0	1	96	48	4
STR	54	72	0
SCL	54	72	0	96	48	5
TAP	54	240	7
TAP	54	264	0
STR	54	288	1
SCL	54	288	1	96	288	2
STR	54	312	2
SUL	54	312	2	96	264	1
STR	56	0	1
SI_	56	0	1	96	48	3
TAP	56	24	1
TAP	56	72	1
STR	56	96	7
SI_	56	96	7	96	48	5
TAP	56	120	7
TAP	56	168	7
STR	56	192	0
SI_	56	192	0	96	48	4
TAP	56	216	0
TAP	56	264	0
BRK	56	288	6
STR	57	0	6
SI_	57	0	6	96	48	3
STR	57	48	7
SI_	57	48	7	96	48	2
STR	57	96	6
SCL	57	96	6	96	48	4
STR	57	144	7
SCR	57	144	7	96	48	1
STR	57	192	6
SI_	57	192	6	96	48	3
STR	57	240	7
SI_	57	240	7	96	48	2
TAP	57	288	6
TAP	57	336	7
STR	58	0	6
SI_	58	0	6	96	48	2
STR	58	72	7
SI_	58	72	7	96	48	3
TAP	58	240	6
TAP	58	264	7
STR	58	288	0
SCL	58	288	0	96	96	5
STR	58	312	1
SUL	58	312	1	96	96	4
TAP	59	240	1
TAP	59	264	0
STR	59	288	7
SCR	59	288	7	96	96	2
STR	59	312	6
SUR	59	312	6	96	96	3
STR	61	0	1
SI_	61	0	1	96	48	4
STR	61	48	0
SI_	61	48	0	96	48	5
STR	61	96	1
SCR	61	96	1	96	48	3
STR	61	144	0
SCL	61	144	0	96	48	6
STR	61	192	1
SI_	61	192	1	96	48	4
STR	61	240	0
SI_	61	240	0	96	48	5
TAP	61	288	1
TAP	61	336	0
STR	62	0	1
SI_	62	0	1	96	48	5
STR	62	72	0
SI_	62	72	0	96	48	4
STR	62	240	1
SCL	62	240	1	96	96	5
STR	62	264	0
SCL	62	264	0	96	96	4
STR	62	288	7
SCL	62	288	7	96	96	3
STR	62	312	6
SCL	62	312	6	96	96	2
TAP	64	192	0
TAP	64	192	7
TAP	64	224	0
TAP	64	224	7
TAP	64	256	0
TAP	64	256	7
BRK	64	288	1
BRK	64	288	6
STR	65	0	0
SI_	65	0	0	96	48	2
TAP	65	48	0
TAP	65	72	0
STR	65	96	7
SI_	65	96	7	96	48	3
TAP	65	144	7
TAP	65	168	7
STR	65	192	0
SI_	65	192	0	96	48	4
TAP	65	240	0
TAP	65	264	0
STR	65	288	7
SI_	65	288	7	96	48	5
TAP	65	336	7
TAP	65	360	7
STR	66	0	0
SI_	66	0	0	96	48	4
TAP	66	48	0
TAP	66	72	0
STR	66	96	7
SI_	66	96	7	96	48	3
TAP	66	144	7
TAP	66	168	7
STR	66	192	0
SI_	66	192	0	96	48	2
TAP	66	240	0
TAP	66	264	0
STR	66	288	7
SI_	66	288	7	96	48	3
TAP	66	336	7
TAP	66	360	7
STR	67	0	0
SI_	67	0	0	96	48	4
TAP	67	48	0
TAP	67	72	0
STR	67	96	7
SI_	67	96	7	96	48	5
TAP	67	144	7
TAP	67	168	7
STR	67	192	0
SI_	67	192	0	96	48	4
TAP	67	240	0
TAP	67	264	0
STR	67	288	7
SI_	67	288	7	96	48	3
TAP	67	336	7
TAP	67	360	7
BRK	68	0	0
BRK	68	96	0
BRK	68	192	0
BRK	68	288	0
TAP	69	0	0
TAP	69	12	1
TAP	69	24	2
TAP	69	36	3
TAP	69	48	4
TAP	69	60	5
TAP	69	72	6
HLD	69	84	7	492
HLD	69	96	0	648
STR	70	288	2
SI_	70	288	2	96	24	6
TAP	70	312	2

T_REC_TAP	194
T_REC_BRK	26
T_REC_XTP	0
T_REC_HLD	14
T_REC_XHO	0
T_REC_STR	169
T_REC_BST	0
T_REC_XST	0
T_REC_TTP	0
T_REC_THO	0
T_REC_SLD	169
T_REC_ALL	572
T_NUM_TAP	363
T_NUM_BRK	26
T_NUM_HLD	14
T_NUM_SLD	169
T_NUM_ALL	572
T_JUDGE_TAP	389
T_JUDGE_HLD	74
T_JUDGE_SLD	169
T_JUDGE_ALL	632
TTM_EACHPAIRS	26
TTM_SCR_TAP	181500
TTM_SCR_BRK	67600
TTM_SCR_HLD	14000
TTM_SCR_SLD	253500
TTM_SCR_ALL	516600
TTM_SCR_S	498600
TTM_SCR_SS	514000
TTM_RAT_ACV	10050

