VERSION	0.00.00	1.03.00
FES_MODE	0
BPM_DEF	134.000	134.000	134.000	134.000
MET_DEF	4	4
RESOLUTION	384
CLK_DEF	384
COMPATIBLE_CODE	MA2

BPM	0	0	134.000
MET	0	0	4	4

TAP	1	0	3
TAP	1	96	3
TAP	1	192	4
TAP	1	288	4
TAP	2	0	0
TAP	2	96	0
TAP	2	192	7
TAP	2	240	7
TAP	2	288	1
TAP	2	288	6
TAP	3	0	0
TAP	3	0	1
TAP	3	48	0
TAP	3	48	1
TAP	3	144	4
TAP	3	144	5
TAP	3	192	4
TAP	3	192	5
TAP	3	288	0
TAP	3	288	1
HLD	4	0	6	288
TAP	4	96	5
TAP	4	192	2
TAP	4	288	5
HLD	5	0	1	288
TAP	5	96	2
TAP	5	192	5
TAP	5	288	2
HLD	6	0	5	96
TAP	6	48	4
HLD	6	96	2	96
TAP	6	144	3
HLD	6	192	5	96
TAP	6	240	4
HLD	6	288	2	96
TAP	6	336	3
BRK	7	0	7
BRK	7	96	5
BRK	7	192	3
BRK	7	288	1
BRK	8	96	0
BRK	8	96	7
TAP	9	48	0
TAP	9	96	1
TAP	9	144	2
TAP	9	192	7
TAP	9	240	6
TAP	9	288	5
TAP	9	336	4
TAP	10	0	1
TAP	10	48	0
TAP	10	96	7
TAP	10	144	6
STR	10	192	5
SSR	10	192	5	96	96	1
TAP	11	48	0
HLD	11	96	0	240
TAP	11	192	2
TAP	11	240	1
TAP	11	288	7
TAP	11	336	6
STR	12	0	0
SI_	12	0	0	96	48	4
STR	12	96	6
SI_	12	96	6	96	48	2
TAP	13	48	7
TAP	13	96	0
TAP	13	144	1
TAP	13	192	2
TAP	13	240	3
TAP	13	288	4
TAP	13	336	5
TAP	14	0	6
TAP	14	48	4
TAP	14	96	2
TAP	14	144	0
TAP	14	192	6
TAP	15	48	7
TAP	15	96	7
TAP	15	144	6
TAP	15	192	7
TAP	15	240	0
TAP	15	288	1
TAP	16	0	7
TAP	16	48	7
TAP	16	96	7
TAP	16	144	0
TAP	16	168	0
TAP	17	0	2
TAP	17	0	3
TAP	17	96	4
TAP	17	96	5
TAP	17	192	0
TAP	17	192	1
TAP	17	288	0
TAP	17	288	1
TAP	18	0	4
TAP	18	0	5
TAP	18	96	2
TAP	18	96	3
TAP	18	192	6
TAP	18	192	7
TAP	18	288	6
TAP	18	288	7
TAP	19	0	0
TAP	19	0	1
TAP	19	96	2
TAP	19	96	3
TAP	19	192	4
TAP	19	192	5
TAP	19	288	6
TAP	19	288	7
TAP	20	0	2
TAP	20	0	5
TAP	20	96	0
TAP	20	96	7
TAP	20	192	1
TAP	20	240	1
TAP	20	288	7
TAP	20	312	7
TAP	21	0	6
TAP	21	96	7
STR	21	192	0
SCL	21	192	0	96	72	5
TAP	21	288	1
TAP	22	0	2
STR	22	96	0
SI_	22	96	0	96	48	3
STR	22	96	7
SI_	22	96	7	96	48	4
TAP	23	0	2
TAP	23	96	3
STR	23	192	4
SCL	23	192	4	96	72	1
TAP	23	288	5
STR	24	0	5
SI_	24	0	5	96	48	2
STR	24	96	2
SI_	24	96	2	96	48	5
HLD	25	0	0	96
TAP	25	48	1
TAP	25	96	1
HLD	25	192	7	96
TAP	25	240	6
TAP	25	288	6
HLD	26	0	0	96
TAP	26	96	7
TAP	26	192	1
TAP	26	192	6
HLD	27	0	3	96
HLD	27	96	4	96
HLD	27	192	2	96
HLD	27	288	5	96
TAP	28	0	0
TAP	28	48	1
TAP	28	48	7
TAP	28	96	1
TAP	28	96	7
TAP	28	144	0
TAP	28	168	0
TAP	29	0	1
TAP	29	96	1
TAP	29	192	5
TAP	29	240	4
TAP	29	288	3
TAP	29	336	2
TAP	29	336	3
TAP	30	0	7
TAP	30	96	7
TAP	30	192	2
TAP	30	240	3
TAP	30	288	1
TAP	30	288	4
TAP	31	0	6
TAP	31	96	6
TAP	31	192	2
TAP	31	240	3
TAP	31	288	4
TAP	31	336	4
TAP	31	336	5
TAP	32	0	0
TAP	32	96	0
TAP	32	192	5
TAP	32	240	4
TAP	32	288	3
TAP	32	288	6
TAP	33	0	0
TAP	33	0	3
TAP	33	96	5
TAP	33	96	6
TAP	33	192	1
TAP	33	192	2
TAP	33	288	4
TAP	33	288	7
TAP	34	0	1
TAP	34	48	0
TAP	34	96	3
TAP	34	144	4
TAP	34	192	7
TAP	34	240	6
TAP	34	288	1
TAP	34	336	6
TAP	35	0	0
TAP	35	48	1
TAP	35	96	2
TAP	35	144	5
TAP	35	168	4
TAP	35	216	7
TAP	35	264	2
TAP	35	288	3
TAP	36	0	7
TAP	36	48	6
TAP	36	96	5
TAP	36	144	2
TAP	36	168	3
TAP	36	216	0
TAP	36	264	5
TAP	36	288	4
TAP	37	0	0
TAP	37	0	4
TAP	37	48	1
TAP	37	48	5
TAP	37	96	2
TAP	37	96	6
TAP	37	144	4
TAP	37	168	5
TAP	37	216	3
TAP	37	216	7
TAP	37	264	2
TAP	37	288	3
TAP	38	0	3
TAP	38	0	7
TAP	38	48	2
TAP	38	48	6
TAP	38	96	1
TAP	38	96	5
TAP	38	144	2
TAP	38	168	3
TAP	38	216	0
TAP	38	216	4
TAP	38	264	5
TAP	38	288	4
TAP	39	0	6
TAP	39	0	7
TAP	39	96	4
TAP	39	96	5
TAP	39	192	2
TAP	39	192	3
TAP	39	288	0
TAP	39	288	1
TAP	40	0	0
TAP	40	0	4
TAP	40	96	1
TAP	40	96	5
TAP	40	192	2
TAP	40	192	6
BRK	40	288	3
BRK	40	288	7
TAP	41	0	0
TAP	41	48	0
TAP	41	96	7
TAP	41	144	7
TAP	41	192	0
TAP	41	240	7
TAP	41	288	0
TAP	41	312	7
TAP	41	336	0
TAP	42	0	4
TAP	42	48	4
TAP	42	96	3
TAP	42	144	3
TAP	42	192	4
TAP	42	240	3
TAP	42	288	5
TAP	42	312	2
TAP	42	336	5
TAP	43	0	3
TAP	43	0	7
TAP	43	48	2
TAP	43	48	6
TAP	43	96	1
TAP	43	96	5
TAP	43	144	0
TAP	43	144	4
TAP	43	192	0
TAP	43	192	4
TAP	43	240	1
TAP	43	240	5
TAP	43	288	2
TAP	43	288	6
TAP	43	336	3
TAP	43	336	7
TAP	44	0	6
TAP	44	0	7
TAP	44	48	2
TAP	44	48	3
TAP	44	96	0
TAP	44	96	1
TAP	44	144	4
TAP	44	144	5
STR	44	192	3
SI_	44	192	3	96	48	0
STR	44	192	4
SI_	44	192	4	96	48	7
BRK	45	0	0
BRK	45	72	0
STR	45	192	7
SUR	45	192	7	96	96	4
STR	46	0	0
SUL	46	0	0	96	96	3
STR	46	192	6
SSL	46	192	6	96	96	2
TAP	47	0	1
TAP	47	96	2
TAP	47	96	3
TAP	47	192	6
TAP	47	288	4
TAP	47	288	5
BRK	48	0	0
BRK	48	96	2
BRK	48	192	4
BRK	48	288	6
HLD	49	0	1	48
TAP	49	48	2
HLD	49	96	1	48
TAP	49	144	3
HLD	49	192	1	48
TAP	49	240	4
HLD	49	288	1	48
TAP	49	336	5
TAP	50	0	1
TAP	50	0	6
TAP	50	72	0
TAP	50	72	7
STR	50	192	0
SI_	50	192	0	96	48	5
STR	50	192	1
SI_	50	192	1	96	48	4
HLD	51	0	2	96
TAP	51	48	5
BRK	51	96	0
HLD	51	192	5	96
TAP	51	240	2
BRK	51	288	7
HLD	52	0	2	96
TAP	52	48	3
HLD	52	96	5	96
TAP	52	144	4
HLD	52	192	2	96
TAP	52	240	3
BRK	52	288	7
HLD	53	0	6	48
TAP	53	48	5
HLD	53	96	6	48
TAP	53	144	4
HLD	53	192	6	48
TAP	53	240	3
HLD	53	288	6	48
TAP	53	336	2
TAP	54	0	1
TAP	54	0	6
TAP	54	72	0
TAP	54	72	7
STR	54	192	6
SI_	54	192	6	96	48	3
STR	54	192	7
SI_	54	192	7	96	48	2
TAP	55	0	7
TAP	55	24	0
TAP	55	72	1
TAP	55	72	6
TAP	55	120	1
TAP	55	120	6
TAP	55	192	0
TAP	55	192	7
HLD	56	0	0	192
HLD	56	192	7	144
HLD	57	0	3	48
TAP	57	48	2
HLD	57	96	3	48
TAP	57	144	4
HLD	57	192	3	48
TAP	57	240	2
HLD	57	288	3	48
TAP	57	336	4
TAP	58	0	2
TAP	58	0	4
TAP	58	72	6
TAP	58	72	7
TAP	58	192	7
TAP	58	288	0
HLD	59	0	5	96
TAP	59	48	2
BRK	59	96	7
HLD	59	192	2	96
TAP	59	240	5
BRK	59	288	0
TAP	60	0	2
TAP	60	0	3
TAP	60	48	2
TAP	60	48	3
TAP	60	96	4
TAP	60	96	5
TAP	60	144	4
TAP	60	144	5
TAP	60	192	3
TAP	60	192	4
TAP	60	240	3
TAP	60	240	4
BRK	60	288	1
BRK	60	288	6
HLD	61	0	4	48
TAP	61	48	5
HLD	61	96	4	48
TAP	61	144	3
HLD	61	192	4	48
TAP	61	240	5
HLD	61	288	4	48
TAP	61	336	3
TAP	62	0	3
TAP	62	0	5
TAP	62	72	0
TAP	62	72	1
STR	62	192	0
SI_	62	192	0	96	48	5
STR	62	192	1
SI_	62	192	1	96	48	4
TAP	63	0	2
TAP	63	24	2
TAP	63	72	3
TAP	63	96	3
TAP	63	120	3
TAP	63	168	4
TAP	63	192	4
TAP	63	216	4
TAP	63	264	5
TAP	63	288	5
TAP	63	336	5
HLD	64	0	7	288
TAP	64	192	0
TAP	64	224	0
TAP	64	256	0
TAP	64	288	0
HLD	65	0	1	288
TAP	65	96	3
TAP	65	192	7
TAP	65	288	3
HLD	66	0	6	288
TAP	66	96	4
TAP	66	192	0
TAP	66	288	4
HLD	67	0	1	96
TAP	67	48	3
HLD	67	96	6	96
TAP	67	144	4
HLD	67	192	1	96
TAP	67	240	2
HLD	67	288	6	48
TAP	67	336	5
BRK	68	0	0
BRK	68	0	1
BRK	68	96	0
BRK	68	96	1
BRK	68	192	6
BRK	68	192	7
BRK	68	288	6
BRK	68	288	7
BRK	69	96	0
BRK	69	96	7
STR	70	288	6
SCR	70	288	6	96	384	5

T_REC_TAP	352
T_REC_BRK	31
T_REC_XTP	0
T_REC_HLD	46
T_REC_XHO	0
T_REC_STR	21
T_REC_BST	0
T_REC_XST	0
T_REC_TTP	0
T_REC_THO	0
T_REC_SLD	21
T_REC_ALL	471
T_NUM_TAP	373
T_NUM_BRK	31
T_NUM_HLD	46
T_NUM_SLD	21
T_NUM_ALL	471
T_JUDGE_TAP	404
T_JUDGE_HLD	101
T_JUDGE_SLD	21
T_JUDGE_ALL	526
TTM_EACHPAIRS	90
TTM_SCR_TAP	186500
TTM_SCR_BRK	80600
TTM_SCR_HLD	46000
TTM_SCR_SLD	31500
TTM_SCR_ALL	344600
TTM_SCR_S	331300
TTM_SCR_SS	341500
TTM_RAT_ACV	10090

