VERSION	0.00.00	1.03.00
FES_MODE	0
BPM_DEF	134.000	134.000	134.000	134.000
MET_DEF	4	4
RESOLUTION	384
CLK_DEF	384
COMPATIBLE_CODE	MA2

BPM	0	0	134.000
MET	0	0	4	4

TAP	1	0	1
TAP	1	96	2
TAP	1	192	3
TAP	1	288	4
TAP	1	288	5
TAP	2	0	6
TAP	2	96	5
TAP	2	192	4
TAP	2	288	2
TAP	2	288	3
TAP	3	0	6
TAP	3	0	7
TAP	3	144	0
TAP	3	144	1
TAP	3	288	2
TAP	3	288	5
TAP	4	0	3
TAP	4	0	4
TAP	4	96	2
TAP	4	96	3
TAP	4	192	0
TAP	4	288	0
TAP	5	0	3
TAP	5	0	4
TAP	5	96	4
TAP	5	96	5
TAP	5	192	7
TAP	5	288	7
TAP	6	0	3
TAP	6	0	4
TAP	6	96	2
TAP	6	96	5
TAP	6	192	1
TAP	6	288	6
TAP	7	0	3
TAP	7	96	2
TAP	7	192	1
BRK	7	288	0
STR	8	0	5
SUL	8	0	5	96	240	2
TAP	9	0	1
TAP	9	96	0
TAP	9	96	1
TAP	9	192	6
TAP	9	288	6
TAP	9	288	7
TAP	10	0	3
TAP	10	96	4
TAP	10	192	2
TAP	10	192	5
TAP	11	0	6
TAP	11	96	0
TAP	11	96	6
TAP	11	192	1
TAP	11	288	1
TAP	11	288	7
TAP	12	0	4
TAP	12	96	3
TAP	12	192	2
TAP	12	192	5
TAP	13	0	5
TAP	13	96	4
TAP	13	96	5
TAP	13	192	2
TAP	13	288	2
TAP	13	288	3
TAP	14	0	1
TAP	14	96	6
TAP	14	192	0
TAP	14	192	7
TAP	15	0	6
TAP	15	0	7
TAP	15	96	6
TAP	15	96	7
TAP	15	192	0
TAP	15	192	1
TAP	15	288	0
TAP	15	288	1
STR	16	0	2
SUR	16	0	2	96	240	5
TAP	17	0	7
STR	17	96	7
SI_	17	96	7	96	144	4
TAP	18	0	3
STR	18	96	3
SI_	18	96	3	96	144	0
TAP	19	0	0
TAP	19	0	7
STR	19	96	0
SI_	19	96	0	96	144	3
STR	19	96	7
SI_	19	96	7	96	144	4
STR	20	0	2
SI_	20	0	2	96	96	7
STR	20	192	5
SI_	20	192	5	96	96	0
TAP	21	0	1
TAP	21	96	1
TAP	21	192	6
TAP	21	288	6
TAP	22	0	2
TAP	22	0	3
TAP	22	96	4
TAP	22	96	5
HLD	22	192	3	96
HLD	22	192	4	96
TAP	23	0	6
TAP	23	96	6
TAP	23	192	1
TAP	23	288	1
TAP	24	0	0
TAP	24	96	7
TAP	24	192	1
TAP	24	192	6
TAP	25	0	5
TAP	25	96	3
TAP	25	192	2
TAP	25	288	4
TAP	26	0	6
TAP	26	96	0
TAP	26	192	2
TAP	26	192	5
TAP	27	0	3
TAP	27	0	4
TAP	27	96	4
TAP	27	96	5
TAP	27	192	5
TAP	27	192	6
TAP	27	288	6
TAP	27	288	7
STR	28	0	0
SCR	28	0	0	96	192	3
STR	28	0	7
SUR	28	0	7	96	192	4
TAP	29	0	5
TAP	29	96	4
TAP	29	96	5
TAP	29	192	6
TAP	29	288	6
TAP	29	288	7
TAP	30	0	2
TAP	30	96	2
TAP	30	96	3
TAP	30	192	1
TAP	30	288	0
TAP	30	288	1
TAP	31	0	6
TAP	31	96	0
TAP	31	96	6
TAP	31	192	1
TAP	31	288	1
TAP	31	288	7
TAP	32	0	4
TAP	32	96	2
TAP	32	96	4
TAP	32	192	3
TAP	32	288	3
TAP	32	288	5
TAP	33	0	3
TAP	33	0	4
TAP	33	96	4
TAP	33	96	5
TAP	33	192	2
TAP	33	192	3
TAP	33	288	3
TAP	33	288	4
TAP	34	0	1
TAP	34	96	0
TAP	34	96	1
TAP	34	192	6
TAP	34	288	6
TAP	34	288	7
TAP	35	0	2
TAP	35	96	2
TAP	35	96	3
TAP	35	192	5
TAP	35	288	4
TAP	35	288	5
TAP	36	0	1
TAP	36	96	1
TAP	36	96	7
TAP	36	192	6
TAP	36	288	0
TAP	36	288	6
TAP	37	0	4
TAP	37	96	2
TAP	37	96	4
TAP	37	192	3
TAP	37	288	3
TAP	37	288	5
TAP	38	0	1
TAP	38	96	0
TAP	38	192	7
TAP	38	288	6
TAP	39	0	0
TAP	39	0	7
TAP	39	96	0
TAP	39	96	1
TAP	39	192	6
TAP	39	192	7
TAP	39	288	0
TAP	39	288	7
TAP	40	0	3
TAP	40	96	1
TAP	40	192	7
TAP	40	288	5
TAP	41	0	3
TAP	41	96	1
TAP	41	96	4
TAP	41	192	1
TAP	41	288	0
TAP	41	288	1
TAP	42	0	4
TAP	42	96	3
TAP	42	96	6
TAP	42	192	6
TAP	42	288	6
TAP	42	288	7
TAP	43	0	1
TAP	43	48	1
TAP	43	96	1
TAP	43	192	6
TAP	43	240	6
TAP	43	288	6
TAP	44	0	0
TAP	44	0	7
TAP	44	96	1
TAP	44	96	6
TAP	44	192	2
TAP	44	192	5
TAP	44	288	3
TAP	44	288	4
STR	45	0	3
SI_	45	0	3	96	96	0
STR	45	0	4
SI_	45	0	4	96	96	7
TAP	47	0	3
TAP	47	96	4
TAP	47	96	5
TAP	47	192	4
TAP	47	288	2
TAP	47	288	3
BRK	48	0	0
BRK	48	0	1
BRK	48	96	6
BRK	48	96	7
BRK	48	192	0
BRK	48	192	1
BRK	48	288	6
BRK	48	288	7
TAP	49	0	3
TAP	49	48	4
TAP	49	96	3
TAP	49	144	4
TAP	49	192	3
TAP	49	240	4
TAP	49	288	3
TAP	49	336	4
TAP	50	0	3
TAP	50	96	3
TAP	50	96	4
TAP	50	288	4
TAP	50	288	5
STR	51	0	7
SCR	51	0	7	96	96	2
TAP	51	288	2
TAP	51	288	3
STR	52	0	0
SCL	52	0	0	96	96	5
TAP	53	0	4
TAP	53	48	3
TAP	53	96	4
TAP	53	144	3
TAP	53	192	4
TAP	53	240	3
TAP	53	288	4
TAP	53	336	3
TAP	54	0	4
TAP	54	96	3
TAP	54	96	4
TAP	54	288	3
TAP	54	288	4
STR	55	0	2
SCL	55	0	2	96	192	5
HLD	56	0	6	288
HLD	56	192	1	96
TAP	57	0	1
TAP	57	48	7
TAP	57	96	1
TAP	57	144	7
TAP	57	192	1
TAP	57	240	7
TAP	57	288	1
TAP	57	336	7
TAP	58	0	1
TAP	58	96	1
TAP	58	96	7
TAP	58	288	2
TAP	58	288	3
STR	59	0	1
SCR	59	0	1	96	72	4
TAP	59	288	4
TAP	59	288	5
STR	60	0	6
SCL	60	0	6	96	72	3
TAP	61	0	6
TAP	61	48	0
TAP	61	96	6
TAP	61	144	0
TAP	61	192	6
TAP	61	240	0
TAP	61	288	6
TAP	61	336	0
TAP	62	0	6
TAP	62	96	0
TAP	62	96	6
TAP	62	288	3
TAP	62	288	4
STR	63	0	5
SCR	63	0	5	96	192	2
HLD	64	0	2	96
HLD	64	0	5	96
TAP	64	192	3
TAP	64	192	4
TAP	64	288	3
TAP	64	288	4
TAP	65	0	2
TAP	65	0	3
TAP	65	96	2
TAP	65	96	3
TAP	65	192	6
TAP	65	192	7
TAP	65	288	6
TAP	65	288	7
TAP	66	0	4
TAP	66	0	5
TAP	66	96	4
TAP	66	96	5
TAP	66	192	0
TAP	66	192	1
TAP	66	288	0
TAP	66	288	1
TAP	67	0	4
TAP	67	0	5
TAP	67	96	2
TAP	67	96	3
TAP	67	192	6
TAP	67	192	7
TAP	67	288	0
TAP	67	288	1
TAP	68	0	0
TAP	68	0	7
TAP	68	96	1
TAP	68	96	6
TAP	68	192	2
TAP	68	192	5
BRK	68	288	3
BRK	68	288	4
STR	69	0	3
SI_	69	0	3	96	96	0
STR	69	0	4
SI_	69	0	4	96	96	7
TAP	70	288	0
TAP	70	288	7
TAP	70	360	1
TAP	70	360	6

T_REC_TAP	309
T_REC_BRK	11
T_REC_XTP	0
T_REC_HLD	6
T_REC_XHO	0
T_REC_STR	20
T_REC_BST	0
T_REC_XST	0
T_REC_TTP	0
T_REC_THO	0
T_REC_SLD	20
T_REC_ALL	366
T_NUM_TAP	329
T_NUM_BRK	11
T_NUM_HLD	6
T_NUM_SLD	20
T_NUM_ALL	366
T_JUDGE_TAP	340
T_JUDGE_HLD	16
T_JUDGE_SLD	20
T_JUDGE_ALL	376
TTM_EACHPAIRS	107
TTM_SCR_TAP	164500
TTM_SCR_BRK	28600
TTM_SCR_HLD	6000
TTM_SCR_SLD	30000
TTM_SCR_ALL	229100
TTM_SCR_S	221200
TTM_SCR_SS	228000
TTM_RAT_ACV	10048

