VERSION	0.00.00	1.03.00
FES_MODE	0
BPM_DEF	134.000	134.000	134.000	134.000
MET_DEF	4	4
RESOLUTION	384
CLK_DEF	384
COMPATIBLE_CODE	MA2

BPM	0	0	134.000
MET	0	0	4	4

TAP	4	0	3
TAP	4	192	4
TAP	5	0	3
TAP	5	192	4
TAP	6	0	3
TAP	6	192	4
TAP	7	0	3
TAP	7	0	4
TAP	7	96	3
TAP	7	96	4
TAP	7	192	3
TAP	7	192	4
TAP	7	288	3
TAP	7	288	4
TAP	8	96	2
TAP	8	96	5
TAP	9	0	1
TAP	9	192	1
TAP	10	0	2
TAP	10	96	2
TAP	10	192	2
TAP	11	0	3
TAP	11	192	3
TAP	12	0	4
TAP	12	96	4
TAP	12	192	4
TAP	13	0	5
TAP	13	192	5
TAP	14	0	6
TAP	14	96	6
TAP	14	192	6
TAP	15	0	7
TAP	15	192	7
TAP	16	0	0
TAP	16	96	0
BRK	16	192	0
HLD	17	0	0	192
HLD	18	0	7	192
HLD	19	0	1	192
HLD	20	0	6	192
TAP	21	0	0
TAP	21	192	0
HLD	22	0	7	192
TAP	23	0	6
TAP	23	192	6
TAP	24	0	5
TAP	24	96	5
TAP	24	192	5
TAP	25	0	4
TAP	25	192	4
TAP	26	0	3
TAP	26	96	3
TAP	26	192	3
STR	27	0	2
SI_	27	0	2	96	288	7
TAP	29	0	0
TAP	29	192	0
TAP	30	0	0
TAP	30	0	7
TAP	31	0	1
TAP	31	192	1
TAP	32	0	0
TAP	32	0	1
TAP	33	0	7
TAP	33	192	7
TAP	34	0	6
TAP	34	0	7
TAP	35	0	0
TAP	35	192	7
TAP	36	0	1
TAP	36	0	6
TAP	37	0	2
TAP	37	96	2
TAP	37	192	2
TAP	38	0	2
TAP	38	0	3
TAP	39	0	4
TAP	39	96	4
TAP	39	192	4
TAP	40	0	4
TAP	40	0	5
TAP	41	0	3
TAP	41	192	3
TAP	42	0	4
TAP	42	192	4
TAP	43	0	3
TAP	43	96	3
TAP	43	192	2
TAP	43	288	2
TAP	44	0	1
TAP	44	96	1
TAP	44	192	0
BRK	45	0	0
BRK	45	0	7
TAP	47	0	6
TAP	47	192	6
TAP	48	0	0
TAP	48	0	7
TAP	48	192	0
TAP	48	192	7
TAP	49	0	1
TAP	49	96	1
TAP	49	192	0
TAP	49	288	0
TAP	50	0	6
TAP	50	0	7
HLD	51	0	0	192
HLD	52	0	7	192
TAP	53	0	6
TAP	53	96	6
TAP	53	192	7
TAP	53	288	7
TAP	54	0	0
TAP	54	0	1
STR	55	0	0
SI_	55	0	0	96	288	3
TAP	57	0	3
TAP	57	96	3
TAP	57	192	2
TAP	57	288	2
TAP	58	0	2
TAP	58	0	3
HLD	59	0	3	192
HLD	60	0	4	192
TAP	61	0	4
TAP	61	96	4
TAP	61	192	5
TAP	61	288	5
TAP	62	0	4
TAP	62	0	5
STR	63	0	4
SI_	63	0	4	96	288	7
TAP	65	0	0
TAP	65	192	7
TAP	66	0	0
TAP	66	192	7
TAP	67	0	0
TAP	67	192	7
TAP	68	0	0
TAP	68	0	7
TAP	68	96	0
TAP	68	96	7
TAP	68	192	0
TAP	68	192	7
TAP	68	288	0
TAP	68	288	7
HLD	69	96	1	648
HLD	69	96	6	648

T_REC_TAP	128
T_REC_BRK	3
T_REC_XTP	0
T_REC_HLD	11
T_REC_XHO	0
T_REC_STR	3
T_REC_BST	0
T_REC_XST	0
T_REC_TTP	0
T_REC_THO	0
T_REC_SLD	3
T_REC_ALL	148
T_NUM_TAP	131
T_NUM_BRK	3
T_NUM_HLD	11
T_NUM_SLD	3
T_NUM_ALL	148
T_JUDGE_TAP	134
T_JUDGE_HLD	64
T_JUDGE_SLD	3
T_JUDGE_ALL	201
TTM_EACHPAIRS	23
TTM_SCR_TAP	65500
TTM_SCR_BRK	7800
TTM_SCR_HLD	11000
TTM_SCR_SLD	4500
TTM_SCR_ALL	88800
TTM_SCR_S	85850
TTM_SCR_SS	88500
TTM_RAT_ACV	10033

