VERSION	0.00.00	1.03.00
FES_MODE	0
BPM_DEF	172.000	172.000	172.000	172.000
MET_DEF	4	4
RESOLUTION	384
CLK_DEF	384
COMPATIBLE_CODE	MA2

BPM	0	0	172.000
MET	0	0	4	4

TAP	2	0	0
TAP	2	0	7
TAP	2	96	3
TAP	2	192	2
TAP	2	288	1
TAP	3	0	0
TAP	3	0	7
TAP	3	48	0
TAP	3	48	7
TAP	3	96	4
TAP	3	192	5
TAP	3	288	6
TAP	4	0	0
TAP	4	0	7
TAP	4	96	3
TAP	4	192	2
TAP	4	288	1
TAP	5	0	1
BRK	5	0	6
TAP	5	48	7
TAP	5	72	0
TAP	5	96	7
BRK	5	144	1
TAP	5	144	6
TAP	5	192	0
TAP	5	216	7
TAP	5	240	0
STR	5	288	1
SI_	5	288	1	96	48	5
BRK	5	288	6
TAP	5	336	7
TAP	5	360	7
TAP	6	96	6
TAP	6	192	5
TAP	6	240	2
TAP	6	288	4
TAP	6	312	3
TAP	6	360	3
TAP	7	0	4
TAP	7	48	2
TAP	7	96	4
TAP	7	120	3
STR	7	144	4
SI_	7	144	4	96	24	6
TAP	7	168	3
STR	7	192	4
SI_	7	192	4	96	24	2
TAP	7	336	0
TAP	8	0	1
TAP	8	0	7
TAP	8	72	2
TAP	8	72	6
TAP	8	144	7
TAP	8	192	0
TAP	8	192	6
TAP	8	264	1
TAP	8	264	5
TAP	8	336	0
TAP	9	0	1
TAP	9	0	7
HLD	9	72	2	120
HLD	9	72	6	120
TAP	9	240	2
TAP	9	288	1
TAP	9	336	0
HLD	10	0	7	192
TAP	10	240	5
TAP	10	288	6
TAP	10	336	7
HLD	11	0	0	96
HLD	11	96	1	96
TAP	11	192	2
TAP	11	240	3
TAP	11	288	4
TAP	11	312	3
STR	11	360	3
SCL	11	360	3	96	504	4
STR	11	360	4
SCR	11	360	4	96	504	3
STR	14	0	1
SI_	14	0	1	96	48	5
STR	14	48	5
SI_	14	48	5	96	48	1
STR	14	192	6
SI_	14	192	6	96	48	2
STR	14	240	2
SI_	14	240	2	96	48	6
HLD	15	0	0	96
HLD	15	96	7	96
HLD	15	192	6	96
STR	15	288	7
SI_	15	288	7	96	192	4
TAP	16	336	1
TAP	16	360	0
STR	17	0	1
SI_	17	0	1	96	192	5
STR	18	0	0
SV_	18	0	0	96	48	6
STR	18	0	4
SV_	18	0	4	96	48	2
STR	18	192	3
SV_	18	192	3	96	48	1
STR	18	192	7
SV_	18	192	7	96	48	5
STR	19	0	0
SV_	19	0	0	96	48	3
STR	19	0	6
SV_	19	0	6	96	48	3
STR	19	192	1
SV_	19	192	1	96	48	4
STR	19	192	7
SV_	19	192	7	96	48	4
TAP	20	0	3
TAP	20	48	3
TAP	20	96	4
TAP	20	144	4
TAP	20	192	2
TAP	20	240	2
TAP	20	288	5
TAP	20	336	5
TAP	21	0	1
TAP	21	24	6
TAP	21	48	1
TAP	21	72	6
TAP	21	96	1
TAP	21	120	6
TAP	21	144	1
TAP	21	168	6
TAP	21	192	0
TAP	21	216	7
TAP	21	240	0
TAP	21	264	7
BRK	21	288	0
STR	22	0	0
SI_	22	0	0	96	48	4
STR	22	48	4
SI_	22	48	4	96	48	0
STR	22	192	6
SI_	22	192	6	96	48	2
STR	22	240	2
SI_	22	240	2	96	48	6
HLD	23	0	0	72
TAP	23	72	4
TAP	23	240	6
TAP	23	264	7
TAP	23	288	0
TAP	23	312	1
TAP	23	360	7
HLD	24	24	0	264
TAP	24	288	6
TAP	24	312	7
TAP	24	360	6
HLD	25	24	5	264
BRK	25	288	6
STR	26	0	6
SI_	26	0	6	96	48	2
STR	26	48	2
SI_	26	48	2	96	48	6
STR	26	192	0
SI_	26	192	0	96	48	4
STR	26	240	4
SI_	26	240	4	96	48	0
HLD	27	0	6	72
TAP	27	72	7
TAP	27	240	2
TAP	27	288	4
TAP	27	312	3
HLD	27	360	6	600
TAP	28	0	3
TAP	28	96	3
TAP	28	192	2
TAP	28	288	2
TAP	29	0	1
TAP	29	48	1
TAP	29	96	1
TAP	29	144	1
TAP	29	192	0
TAP	29	216	7
TAP	29	240	0
TAP	29	264	7
BRK	29	288	0
TAP	30	0	5
TAP	30	48	4
TAP	30	96	3
TAP	30	120	2
TAP	30	168	3
TAP	30	192	4
TAP	30	216	3
TAP	30	264	4
TAP	30	288	3
TAP	30	336	4
TAP	31	0	5
TAP	31	24	4
TAP	31	72	3
TAP	31	96	0
TAP	31	120	7
TAP	31	144	6
TAP	31	168	5
TAP	31	192	7
TAP	31	216	0
TAP	31	240	1
TAP	31	264	2
TAP	31	288	7
TAP	31	312	6
TAP	31	336	5
TAP	31	360	4
TAP	32	0	5
TAP	32	72	6
TAP	32	144	7
TAP	32	192	2
TAP	32	264	1
TAP	32	336	0
TAP	33	0	3
TAP	33	0	4
TAP	33	72	2
TAP	33	72	5
TAP	33	144	1
TAP	33	144	6
TAP	33	192	2
TAP	33	192	5
TAP	33	264	1
TAP	33	264	6
TAP	33	336	0
TAP	33	336	7
TAP	34	0	0
TAP	34	96	1
TAP	34	192	2
TAP	34	240	5
TAP	34	288	3
TAP	34	312	4
TAP	34	360	4
TAP	35	0	3
TAP	35	48	5
TAP	35	96	3
TAP	35	120	4
STR	35	144	3
SI_	35	144	3	96	24	1
TAP	35	168	4
STR	35	192	3
SI_	35	192	3	96	24	5
STR	35	336	1
SI_	35	336	1	96	48	4
HLD	36	0	7	72
STR	36	144	7
SI_	36	144	7	96	48	3
HLD	36	192	1	72
STR	36	336	1
SI_	36	336	1	96	96	4
HLD	37	0	6	73
TAP	38	0	1
TAP	38	24	0
TAP	38	72	1
TAP	38	96	6
TAP	38	120	7
TAP	38	168	6
TAP	39	24	5
TAP	39	48	6
TAP	39	72	7
TAP	39	96	2
TAP	39	120	1
TAP	39	144	0
TAP	39	168	7
TAP	39	192	6
TAP	39	216	5
TAP	39	264	0
TAP	39	312	4
TAP	39	336	3
TAP	40	0	0
TAP	40	24	1
TAP	40	48	2
TAP	40	72	3
TAP	40	96	4
TAP	40	120	5
TAP	40	168	1
TAP	40	192	0
TAP	40	216	7
TAP	40	240	6
TAP	40	288	0
TAP	40	312	1
TAP	40	336	2
TAP	40	360	3
HLD	41	0	2	144
TAP	41	96	3
TAP	41	144	3
HLD	41	192	5	144
TAP	41	288	6
TAP	41	336	6
HLD	42	0	2	144
TAP	42	96	5
TAP	42	144	5
TAP	42	192	6
TAP	42	240	5
TAP	42	288	6
TAP	42	336	7
HLD	43	0	0	192
TAP	43	240	3
TAP	43	288	2
TAP	43	336	1
HLD	44	0	0	96
HLD	44	96	1	96
HLD	44	192	0	48
TAP	44	240	7
TAP	44	288	1
TAP	44	312	7
STR	44	360	1
SUL	44	360	1	96	216	2
STR	44	360	6
SUR	44	360	6	96	216	5
TAP	46	0	5
TAP	46	24	4
TAP	46	48	3
TAP	46	72	2
TAP	46	144	5
TAP	46	168	4
TAP	46	192	3
TAP	46	216	2
TAP	46	288	5
TAP	46	312	4
TAP	46	336	3
TAP	47	0	1
TAP	47	24	2
TAP	47	48	3
TAP	47	72	4
TAP	47	96	7
TAP	47	144	2
TAP	47	168	3
TAP	47	192	6
TAP	47	240	7
TAP	47	288	5
TAP	47	312	6
TAP	47	336	7
TAP	47	360	0
TAP	48	0	5
TAP	48	96	6
TAP	48	192	5
TAP	48	240	2
TAP	48	288	4
TAP	48	312	3
TAP	48	360	3
TAP	49	0	4
TAP	49	48	2
TAP	49	96	4
TAP	49	120	3
STR	49	144	4
SI_	49	144	4	96	24	6
TAP	49	168	3
STR	49	192	4
SI_	49	192	4	96	24	2
TAP	50	48	7
TAP	50	72	0
TAP	50	96	1
TAP	50	120	2
TAP	50	144	3
TAP	50	168	4
TAP	50	192	1
TAP	50	216	0
TAP	50	240	7
TAP	50	264	6
TAP	50	288	5
TAP	50	336	1
TAP	51	0	5
TAP	51	24	6
TAP	51	48	7
TAP	51	72	0
TAP	51	96	1
TAP	51	144	6
TAP	51	192	6
TAP	51	240	6
TAP	51	288	0
TAP	51	312	7
TAP	51	360	7
TAP	52	0	3
TAP	52	24	4
TAP	52	48	5
TAP	52	72	6
TAP	52	96	7
TAP	52	144	2
TAP	52	168	4
TAP	52	192	2
TAP	52	240	5
TAP	52	288	5
TAP	52	312	3
TAP	52	336	5
TAP	52	360	3
TAP	53	0	4
TAP	53	24	2
TAP	53	48	4
TAP	53	72	2
TAP	53	96	3
TAP	53	120	1
TAP	53	144	3
TAP	53	168	1
TAP	53	192	7
TAP	53	216	2
TAP	53	240	5
TAP	53	264	0
TAP	53	288	7
TAP	53	312	0
TAP	53	336	4
TAP	53	360	0
STR	54	0	7
SCL	54	0	7	96	384	0
TAP	55	144	0
TAP	55	168	7
HLD	55	192	0	72
HLD	55	264	1	72
STR	55	336	0
SCR	55	336	0	96	528	7
BRK	57	288	0
STR	58	0	7
SCL	58	0	7	96	384	0
TAP	59	144	0
TAP	59	168	7
HLD	59	192	0	72
HLD	59	264	1	72
TAP	59	336	0
TAP	60	0	3
TAP	60	48	3
TAP	60	96	4
TAP	60	144	4
TAP	60	192	3
TAP	60	240	3
TAP	60	288	4
TAP	60	336	4
TAP	61	0	2
TAP	61	24	5
TAP	61	48	2
TAP	61	72	5
TAP	61	96	1
TAP	61	120	6
TAP	61	144	1
TAP	61	168	6
TAP	61	192	0
TAP	61	216	7
TAP	61	240	0
TAP	61	264	7
BRK	61	288	0
STR	62	0	7
SI_	62	0	7	96	48	2
STR	62	48	2
SI_	62	48	2	96	48	5
STR	62	192	1
SI_	62	192	1	96	48	6
STR	62	240	6
SI_	62	240	6	96	48	3
HLD	63	0	7	72
TAP	63	72	3
TAP	63	240	1
TAP	63	264	0
TAP	63	288	7
TAP	63	312	6
TAP	63	360	0
HLD	64	24	7	264
TAP	64	288	1
TAP	64	312	0
TAP	64	360	1
HLD	65	24	2	264
BRK	65	288	1
STR	66	0	1
SI_	66	0	1	96	48	6
STR	66	48	6
SI_	66	48	6	96	48	3
STR	66	192	7
SI_	66	192	7	96	48	2
STR	66	240	2
SI_	66	240	2	96	48	5
HLD	67	0	1	72
TAP	67	72	0
TAP	67	240	5
TAP	67	288	3
TAP	67	312	4
TAP	67	360	6
TAP	68	0	3
TAP	68	48	4
TAP	68	96	2
TAP	68	144	5
TAP	68	192	1
TAP	68	240	6
TAP	68	288	0
TAP	68	336	7
TAP	69	0	0
TAP	69	24	7
TAP	69	48	0
TAP	69	72	7
TAP	69	96	1
TAP	69	120	6
TAP	69	144	1
TAP	69	168	6
TAP	69	192	2
TAP	69	216	3
TAP	69	240	4
TAP	69	264	5
BRK	69	288	6
TAP	70	0	5
TAP	70	96	2
TAP	70	192	4
BRK	70	288	0
TAP	71	0	4
TAP	71	48	2
TAP	71	96	4
TAP	71	120	3
STR	71	144	4
SI_	71	144	4	96	24	6
TAP	71	168	3
STR	71	192	4
SI_	71	192	4	96	24	2
TAP	71	336	0
TAP	72	0	1
TAP	72	0	7
TAP	72	72	2
TAP	72	72	6
TAP	72	144	7
TAP	72	192	0
TAP	72	192	6
TAP	72	264	1
TAP	72	264	5
TAP	72	336	0
TAP	73	0	1
TAP	73	0	7
HLD	73	72	2	120
HLD	73	72	6	120
TAP	73	240	2
TAP	73	288	1
TAP	73	336	0
HLD	74	0	7	192
TAP	74	240	5
TAP	74	288	6
TAP	74	336	7
HLD	75	0	0	96
HLD	75	96	1	96
TAP	75	192	2
TAP	75	240	3
TAP	75	288	4
TAP	75	312	3
HLD	75	360	4	312
BRK	76	0	3
TAP	76	48	3
BRK	76	96	2
TAP	76	144	2
BRK	76	192	1
TAP	76	240	1
BRK	76	288	0
BRK	77	0	1
BRK	77	0	6
TAP	77	48	3
TAP	77	72	4
TAP	77	96	3
BRK	77	144	1
BRK	77	144	6
TAP	77	192	4
TAP	77	216	3
TAP	77	240	4
BRK	77	288	1
BRK	77	288	6
TAP	77	336	3
TAP	77	336	4
TAP	77	360	3
TAP	77	360	4

T_REC_TAP	402
T_REC_BRK	21
T_REC_XTP	0
T_REC_HLD	37
T_REC_XHO	0
T_REC_STR	49
T_REC_BST	0
T_REC_XST	0
T_REC_TTP	0
T_REC_THO	0
T_REC_SLD	49
T_REC_ALL	558
T_NUM_TAP	451
T_NUM_BRK	21
T_NUM_HLD	37
T_NUM_SLD	49
T_NUM_ALL	558
T_JUDGE_TAP	472
T_JUDGE_HLD	118
T_JUDGE_SLD	49
T_JUDGE_ALL	639
TTM_EACHPAIRS	36
TTM_SCR_TAP	225500
TTM_SCR_BRK	54600
TTM_SCR_HLD	37000
TTM_SCR_SLD	73500
TTM_SCR_ALL	390600
TTM_SCR_S	376850
TTM_SCR_SS	388500
TTM_RAT_ACV	10054

