VERSION	0.00.00	1.03.00
FES_MODE	0
BPM_DEF	172.000	172.000	172.000	172.000
MET_DEF	4	4
RESOLUTION	384
CLK_DEF	384
COMPATIBLE_CODE	MA2

BPM	0	0	172.000
MET	0	0	4	4

TAP	2	0	3
TAP	2	0	4
TAP	2	336	2
TAP	2	336	5
TAP	3	0	3
TAP	3	0	4
TAP	3	240	2
TAP	3	240	4
TAP	3	312	3
TAP	3	312	5
TAP	4	0	3
TAP	4	0	4
TAP	4	240	3
TAP	4	240	4
TAP	4	288	3
TAP	4	288	4
TAP	4	336	3
TAP	4	336	4
TAP	5	0	2
TAP	5	0	5
TAP	5	144	0
TAP	5	144	7
BRK	5	288	1
BRK	5	288	6
STR	6	0	0
SCL	6	0	0	96	48	5
STR	6	192	7
SCR	6	192	7	96	48	2
TAP	7	0	6
TAP	7	48	7
STR	7	96	0
SI_	7	96	0	96	48	4
STR	7	336	6
SI_	7	336	6	96	48	3
TAP	8	0	2
STR	8	144	1
SI_	8	144	1	96	48	4
TAP	8	192	5
STR	8	336	7
SI_	8	336	7	96	48	3
TAP	9	0	4
TAP	9	240	1
STR	9	288	0
SI_	9	288	0	96	48	4
TAP	9	336	7
TAP	10	0	6
TAP	10	240	6
TAP	10	288	2
TAP	10	336	5
STR	11	0	3
SI_	11	0	3	96	48	7
TAP	11	192	0
TAP	11	192	6
TAP	11	288	1
TAP	11	288	5
HLD	12	0	2	96
HLD	12	0	4	96
HLD	12	192	3	96
HLD	12	192	5	96
STR	13	0	4
SUL	13	0	4	96	192	1
STR	14	0	2
SCL	14	0	2	96	192	5
HLD	15	0	7	96
HLD	15	96	3	96
HLD	15	192	5	96
HLD	15	288	1	96
STR	16	0	5
SCR	16	0	5	96	192	2
TAP	16	336	1
TAP	17	0	6
TAP	17	144	4
TAP	17	192	3
TAP	17	288	2
TAP	17	288	5
STR	18	0	3
SI_	18	0	3	96	72	0
STR	18	0	4
SI_	18	0	4	96	72	7
TAP	19	0	0
TAP	19	0	7
TAP	19	96	1
TAP	19	96	6
TAP	19	192	2
TAP	19	192	5
TAP	19	288	3
TAP	19	288	4
STR	20	0	2
SI_	20	0	2	96	48	4
STR	20	192	5
SI_	20	192	5	96	48	3
TAP	21	0	2
TAP	21	0	3
TAP	21	96	4
TAP	21	96	5
TAP	21	192	3
TAP	21	192	4
BRK	21	288	1
BRK	21	288	6
TAP	22	0	1
TAP	22	48	6
TAP	22	96	1
TAP	22	144	6
TAP	22	192	0
TAP	22	240	7
TAP	22	288	0
TAP	22	336	7
STR	23	0	0
SI_	23	0	0	96	48	4
TAP	23	240	3
TAP	23	288	4
STR	24	0	3
SI_	24	0	3	96	72	6
TAP	24	240	4
TAP	24	288	3
STR	25	0	4
SI_	25	0	4	96	72	1
TAP	26	0	6
TAP	26	48	1
TAP	26	96	6
TAP	26	144	1
TAP	26	192	7
TAP	26	240	0
TAP	26	288	7
TAP	26	336	0
STR	27	0	7
SI_	27	0	7	96	48	3
TAP	27	240	2
TAP	27	288	5
STR	28	0	1
SI_	28	0	1	96	48	5
STR	28	192	6
SI_	28	192	6	96	48	2
TAP	29	0	0
TAP	29	0	1
STR	29	96	0
SI_	29	96	0	96	72	3
STR	29	96	7
SI_	29	96	7	96	72	4
TAP	30	0	2
TAP	30	96	3
TAP	30	192	2
TAP	30	288	1
TAP	30	288	4
TAP	31	0	5
TAP	31	96	4
TAP	31	192	5
TAP	31	288	3
TAP	31	288	6
TAP	32	0	6
TAP	32	96	5
TAP	32	96	7
TAP	32	192	1
TAP	32	288	0
TAP	32	288	2
TAP	33	0	2
TAP	33	96	1
TAP	33	96	3
TAP	33	192	5
TAP	33	288	4
TAP	33	288	6
STR	34	0	7
SCR	34	0	7	96	48	2
STR	34	192	0
SCL	34	192	0	96	48	5
TAP	35	0	6
TAP	35	48	7
STR	35	96	0
SI_	35	96	0	96	48	4
STR	35	336	6
SI_	35	336	6	96	48	3
TAP	36	0	2
STR	36	144	1
SI_	36	144	1	96	48	4
TAP	36	192	5
STR	36	336	5
SUL	36	336	5	96	144	2
TAP	37	0	1
STR	38	0	1
SSR	38	0	1	96	96	5
STR	38	288	6
SSL	38	288	6	96	96	2
TAP	39	192	3
TAP	39	288	2
TAP	39	288	5
TAP	40	0	6
TAP	40	48	7
TAP	40	96	0
TAP	40	192	1
TAP	40	240	0
TAP	40	288	7
STR	41	0	6
SI_	41	0	6	96	48	3
STR	41	192	1
SI_	41	192	1	96	48	4
STR	42	0	3
SI_	42	0	3	96	72	0
STR	42	0	4
SI_	42	0	4	96	72	7
TAP	42	240	1
TAP	42	288	0
STR	42	336	7
SI_	42	336	7	96	48	3
TAP	43	0	6
TAP	43	240	2
TAP	43	288	6
TAP	43	336	1
STR	44	0	7
SI_	44	0	7	96	48	3
TAP	44	192	2
TAP	44	192	4
TAP	44	288	1
TAP	44	288	5
HLD	45	0	0	96
HLD	45	0	6	96
BRK	45	192	7
STR	46	0	0
SCR	46	0	0	96	96	3
STR	46	192	0
SCL	46	192	0	96	96	5
STR	47	0	4
SCL	47	0	4	96	96	1
STR	47	192	4
SCR	47	192	4	96	96	7
TAP	48	0	1
TAP	48	48	2
TAP	48	96	0
TAP	48	96	3
TAP	48	192	6
TAP	48	240	5
TAP	48	288	4
TAP	48	288	7
TAP	49	0	1
TAP	49	48	0
TAP	49	96	7
TAP	49	144	6
TAP	49	192	0
TAP	49	192	7
STR	49	288	2
SUL	49	288	2	96	96	5
STR	50	0	5
SCR	50	0	5	96	192	2
HLD	51	0	5	96
TAP	51	96	1
HLD	51	192	2	96
TAP	51	288	6
STR	52	0	0
SI_	52	0	0	96	48	3
STR	52	192	7
SI_	52	192	7	96	48	4
TAP	53	0	2
TAP	53	0	5
TAP	53	96	1
TAP	53	96	6
TAP	53	192	0
TAP	53	192	7
STR	54	0	1
SI_	54	0	1	96	96	3
STR	54	192	7
SI_	54	192	7	96	96	5
STR	55	0	0
SI_	55	0	0	96	96	4
STR	56	0	6
SI_	56	0	6	96	96	0
STR	56	192	1
SI_	56	192	1	96	96	5
STR	57	0	4
SI_	57	0	4	96	96	2
STR	58	0	1
SI_	58	0	1	96	96	7
STR	58	192	6
SI_	58	192	6	96	96	2
STR	59	0	3
SI_	59	0	3	96	96	5
STR	60	0	2
SV_	60	0	2	96	48	4
STR	60	192	5
SV_	60	192	5	96	48	3
STR	61	0	1
SV_	61	0	1	96	48	4
STR	61	96	6
SV_	61	96	6	96	48	3
STR	61	192	0
SI_	61	192	0	96	48	4
TAP	62	0	5
TAP	62	48	1
TAP	62	96	5
TAP	62	144	1
TAP	62	192	6
TAP	62	240	2
TAP	62	288	6
TAP	62	336	2
STR	63	0	6
SI_	63	0	6	96	48	2
TAP	63	240	1
TAP	63	288	7
STR	64	0	0
SI_	64	0	0	96	72	5
TAP	64	240	5
TAP	64	288	3
STR	65	0	4
SI_	65	0	4	96	72	0
TAP	66	0	2
TAP	66	48	6
TAP	66	96	2
TAP	66	144	6
TAP	66	192	1
TAP	66	240	5
TAP	66	288	1
TAP	66	336	5
STR	67	0	1
SI_	67	0	1	96	48	5
TAP	67	240	6
TAP	67	288	2
TAP	68	0	3
TAP	68	0	7
TAP	68	192	0
TAP	68	192	4
TAP	69	0	3
TAP	69	0	7
TAP	69	96	0
TAP	69	96	4
TAP	69	192	3
TAP	69	192	7
STR	70	0	0
SCR	70	0	0	96	144	3
STR	70	0	4
SCR	70	0	4	96	144	7
BRK	70	288	0
BRK	70	288	4
BRK	71	0	3
BRK	71	0	7
TAP	71	336	1
TAP	72	0	4
TAP	72	72	2
TAP	72	72	3
TAP	72	144	3
TAP	72	192	6
TAP	72	264	4
TAP	72	264	5
TAP	72	336	6
TAP	73	0	1
TAP	73	72	0
TAP	73	72	7
TAP	73	240	1
TAP	73	288	2
TAP	73	336	3
STR	74	0	4
SI_	74	0	4	96	96	0
TAP	74	240	7
TAP	74	288	6
TAP	74	336	5
STR	75	0	7
SI_	75	0	7	96	48	2
TAP	75	96	0
STR	75	192	0
SI_	75	192	0	96	48	5
TAP	75	288	7
TAP	76	0	4
TAP	76	48	3
TAP	76	96	2
TAP	76	96	5
TAP	76	192	1
TAP	76	240	6
TAP	76	288	0
TAP	76	288	7
TAP	77	0	2
TAP	77	0	7
TAP	77	48	0
TAP	77	48	1
TAP	77	144	0
TAP	77	144	5
TAP	77	192	6
TAP	77	192	7
TAP	77	288	1
TAP	77	288	6
BRK	77	336	0
BRK	77	336	7

T_REC_TAP	219
T_REC_BRK	11
T_REC_XTP	0
T_REC_HLD	12
T_REC_XHO	0
T_REC_STR	68
T_REC_BST	0
T_REC_XST	0
T_REC_TTP	0
T_REC_THO	0
T_REC_SLD	68
T_REC_ALL	378
T_NUM_TAP	287
T_NUM_BRK	11
T_NUM_HLD	12
T_NUM_SLD	68
T_NUM_ALL	378
T_JUDGE_TAP	298
T_JUDGE_HLD	24
T_JUDGE_SLD	68
T_JUDGE_ALL	390
TTM_EACHPAIRS	64
TTM_SCR_TAP	143500
TTM_SCR_BRK	28600
TTM_SCR_HLD	12000
TTM_SCR_SLD	102000
TTM_SCR_ALL	286100
TTM_SCR_S	276450
TTM_SCR_SS	285000
TTM_RAT_ACV	10038

