VERSION	0.00.00	1.03.00
FES_MODE	0
BPM_DEF	172.000	172.000	172.000	172.000
MET_DEF	4	4
RESOLUTION	384
CLK_DEF	384
COMPATIBLE_CODE	MA2

BPM	0	0	172.000
MET	0	0	4	4

TAP	2	0	3
TAP	2	0	4
TAP	3	0	3
TAP	3	0	4
TAP	4	0	3
TAP	4	0	4
TAP	5	0	2
TAP	5	0	5
TAP	5	144	0
TAP	5	144	7
BRK	5	288	1
BRK	5	288	6
TAP	6	0	4
TAP	6	0	5
TAP	6	192	2
TAP	6	192	3
TAP	7	0	3
TAP	7	96	4
TAP	7	192	2
TAP	8	0	0
TAP	8	0	1
TAP	8	192	6
TAP	8	192	7
STR	9	0	0
SI_	9	0	0	96	192	3
STR	9	0	7
SI_	9	0	7	96	192	4
TAP	10	0	2
TAP	10	96	1
TAP	10	192	0
TAP	10	288	7
TAP	11	0	6
TAP	11	96	5
TAP	11	192	3
TAP	11	192	4
TAP	12	0	4
TAP	12	0	5
TAP	12	192	2
TAP	12	192	3
STR	13	0	3
SI_	13	0	3	96	192	1
STR	13	0	4
SI_	13	0	4	96	192	6
STR	14	0	2
SCR	14	0	2	96	192	5
TAP	15	0	3
TAP	15	96	3
TAP	15	192	4
TAP	15	288	4
TAP	16	0	2
TAP	16	0	3
TAP	16	192	4
TAP	16	192	5
TAP	17	0	2
TAP	17	0	3
TAP	17	192	4
TAP	17	192	5
STR	18	0	6
SCR	18	0	6	96	192	1
TAP	19	0	2
TAP	19	96	1
TAP	19	192	5
TAP	19	288	6
TAP	20	0	0
TAP	20	0	1
TAP	20	192	6
TAP	20	192	7
TAP	21	0	0
TAP	21	0	7
TAP	21	96	1
TAP	21	96	6
TAP	21	192	2
TAP	21	192	5
TAP	21	288	3
TAP	21	288	4
TAP	22	0	3
TAP	22	96	4
TAP	22	192	2
TAP	22	288	5
TAP	23	0	2
TAP	23	96	2
TAP	23	96	5
TAP	24	0	3
TAP	24	0	4
TAP	24	96	2
TAP	24	96	3
TAP	24	192	4
TAP	24	192	5
TAP	25	0	4
TAP	25	0	5
TAP	25	96	2
TAP	25	96	3
TAP	25	192	3
TAP	25	192	4
TAP	26	0	1
TAP	26	96	6
TAP	26	192	0
TAP	26	288	7
TAP	27	0	0
TAP	27	96	0
TAP	27	96	7
TAP	28	0	0
TAP	28	0	1
TAP	28	192	6
TAP	28	192	7
TAP	29	0	0
TAP	29	0	1
TAP	29	96	6
TAP	29	96	7
BRK	29	192	0
BRK	29	192	7
TAP	30	0	2
TAP	30	192	2
TAP	30	192	3
TAP	31	0	5
TAP	31	192	4
TAP	31	192	5
TAP	32	0	6
TAP	32	0	7
TAP	32	192	0
TAP	32	192	1
TAP	33	0	2
TAP	33	0	3
TAP	33	192	4
TAP	33	192	5
TAP	34	0	6
TAP	34	96	6
TAP	34	96	7
TAP	34	192	1
TAP	34	288	0
TAP	34	288	1
TAP	35	0	2
TAP	35	96	5
TAP	35	192	1
TAP	35	192	6
TAP	36	0	0
TAP	36	0	1
TAP	36	192	6
TAP	36	192	7
STR	37	0	0
SI_	37	0	0	96	192	3
STR	37	0	7
SI_	37	0	7	96	192	4
TAP	38	0	6
TAP	38	0	7
TAP	38	96	6
TAP	38	96	7
TAP	38	288	0
TAP	38	288	1
TAP	39	0	0
TAP	39	0	1
TAP	40	0	6
TAP	40	96	6
TAP	40	192	1
TAP	40	288	1
TAP	41	0	6
TAP	41	0	7
TAP	41	192	6
TAP	41	192	7
TAP	42	0	0
TAP	42	0	1
TAP	42	192	0
TAP	42	192	1
HLD	43	0	3	192
HLD	43	0	4	192
TAP	44	0	2
TAP	44	0	5
TAP	44	96	2
TAP	44	96	5
TAP	44	192	1
TAP	44	192	6
TAP	44	288	1
TAP	44	288	6
STR	45	0	0
SI_	45	0	0	96	192	3
STR	45	0	7
SI_	45	0	7	96	192	4
TAP	46	0	2
TAP	46	96	2
TAP	46	192	5
TAP	46	288	5
TAP	47	0	0
TAP	47	96	0
TAP	47	192	7
TAP	47	288	7
TAP	48	0	1
TAP	48	96	1
TAP	48	192	6
TAP	48	288	6
TAP	49	0	3
TAP	49	96	4
TAP	49	192	2
TAP	49	192	5
TAP	50	0	5
TAP	50	96	5
TAP	50	192	2
TAP	50	288	2
TAP	50	288	5
TAP	51	0	1
TAP	51	96	1
TAP	51	192	6
TAP	51	288	1
TAP	51	288	6
TAP	52	0	4
TAP	52	0	5
TAP	52	192	2
TAP	52	192	3
TAP	53	0	2
TAP	53	96	5
TAP	53	192	1
TAP	53	192	6
STR	54	0	5
SCR	54	0	5	96	384	2
STR	56	0	2
SCL	56	0	2	96	384	5
STR	58	0	5
SUL	58	0	5	96	384	2
TAP	60	0	1
TAP	60	0	2
TAP	60	192	5
TAP	60	192	6
TAP	61	0	1
TAP	61	0	6
TAP	61	96	1
TAP	61	96	6
TAP	61	192	0
TAP	61	192	7
TAP	61	288	0
TAP	61	288	7
TAP	62	0	1
TAP	62	96	1
TAP	62	96	6
TAP	62	192	6
TAP	62	288	1
TAP	62	288	6
TAP	63	0	0
BRK	63	96	0
BRK	63	96	7
TAP	64	0	0
TAP	64	0	1
TAP	64	192	2
TAP	64	192	3
TAP	65	0	4
TAP	65	0	5
TAP	65	96	4
TAP	65	96	5
TAP	65	192	4
TAP	65	192	5
TAP	66	0	6
TAP	66	96	0
TAP	66	96	6
TAP	66	192	0
TAP	66	288	0
TAP	66	288	6
TAP	67	0	7
BRK	67	96	0
BRK	67	96	7
TAP	68	0	6
TAP	68	0	7
TAP	68	192	4
TAP	68	192	5
TAP	69	0	2
TAP	69	0	3
TAP	69	96	2
TAP	69	96	3
TAP	69	192	2
TAP	69	192	3
HLD	70	0	2	192
HLD	70	0	5	192
BRK	70	288	1
BRK	70	288	6
BRK	71	0	0
BRK	71	0	7
TAP	72	0	0
TAP	72	0	4
TAP	72	192	3
TAP	72	192	7
HLD	73	0	1	192
HLD	73	0	6	192
TAP	74	0	3
TAP	74	96	4
TAP	74	192	2
TAP	74	288	5
TAP	75	0	1
TAP	75	96	6
TAP	75	192	0
TAP	75	288	7
TAP	76	0	1
TAP	76	48	1
TAP	76	96	1
TAP	76	192	6
TAP	76	240	6
TAP	76	288	6
TAP	77	0	1
TAP	77	0	6
TAP	77	144	1
TAP	77	144	6
BRK	77	288	1
BRK	77	288	6

T_REC_TAP	253
T_REC_BRK	14
T_REC_XTP	0
T_REC_HLD	6
T_REC_XHO	0
T_REC_STR	13
T_REC_BST	0
T_REC_XST	0
T_REC_TTP	0
T_REC_THO	0
T_REC_SLD	13
T_REC_ALL	299
T_NUM_TAP	266
T_NUM_BRK	14
T_NUM_HLD	6
T_NUM_SLD	13
T_NUM_ALL	299
T_JUDGE_TAP	280
T_JUDGE_HLD	24
T_JUDGE_SLD	13
T_JUDGE_ALL	317
TTM_EACHPAIRS	101
TTM_SCR_TAP	133000
TTM_SCR_BRK	36400
TTM_SCR_HLD	6000
TTM_SCR_SLD	19500
TTM_SCR_ALL	194900
TTM_SCR_S	187700
TTM_SCR_SS	193500
TTM_RAT_ACV	10072

