VERSION	0.00.00	1.03.00
FES_MODE	0
BPM_DEF	172.000	172.000	172.000	172.000
MET_DEF	4	4
RESOLUTION	384
CLK_DEF	384
COMPATIBLE_CODE	MA2

BPM	0	0	172.000
MET	0	0	4	4

TAP	2	0	4
TAP	2	192	4
TAP	3	0	5
TAP	3	192	5
TAP	4	0	6
TAP	4	192	6
BRK	5	0	0
BRK	5	0	7
TAP	6	0	1
TAP	6	96	1
TAP	6	192	1
TAP	7	0	2
TAP	7	96	2
TAP	7	192	2
TAP	8	0	2
TAP	8	0	3
TAP	8	192	2
TAP	8	192	3
HLD	9	0	2	192
HLD	9	0	3	192
TAP	10	0	4
TAP	10	96	4
TAP	10	192	4
TAP	11	0	5
TAP	11	96	5
TAP	11	192	5
STR	12	0	6
SI_	12	0	6	96	192	2
TAP	14	0	1
TAP	14	192	1
TAP	15	0	1
TAP	15	192	1
HLD	16	0	2	384
HLD	16	0	3	384
TAP	18	0	4
TAP	18	192	4
TAP	19	0	4
TAP	19	192	4
HLD	20	0	4	384
HLD	20	0	5	384
TAP	22	0	6
TAP	22	96	6
TAP	22	192	6
TAP	23	0	6
TAP	23	0	7
TAP	24	0	5
TAP	24	192	5
TAP	25	0	4
TAP	25	0	5
TAP	26	0	3
TAP	26	96	3
TAP	26	192	3
TAP	27	0	2
TAP	27	0	3
HLD	28	0	0	576
TAP	30	0	7
TAP	30	96	7
TAP	30	192	7
TAP	31	0	0
TAP	31	96	0
TAP	31	192	0
HLD	32	0	1	192
HLD	33	0	2	192
TAP	34	0	3
TAP	34	96	3
TAP	34	192	3
TAP	35	0	4
TAP	35	96	4
TAP	35	192	4
TAP	36	0	4
TAP	36	0	5
TAP	36	192	4
TAP	36	192	5
TAP	37	0	4
TAP	37	0	5
TAP	38	0	3
TAP	38	96	3
TAP	38	192	3
TAP	39	0	2
TAP	39	96	2
TAP	39	192	2
TAP	40	0	0
TAP	40	96	0
TAP	40	192	0
HLD	41	0	0	192
HLD	42	0	7	192
TAP	43	0	0
TAP	43	96	0
TAP	43	192	0
TAP	44	0	7
TAP	44	96	7
TAP	44	192	7
TAP	45	0	0
TAP	45	0	7
STR	46	0	0
SI_	46	0	0	96	192	3
STR	47	0	7
SI_	47	0	7	96	192	4
TAP	48	0	0
TAP	48	192	0
TAP	49	0	7
TAP	49	96	7
TAP	49	192	7
HLD	50	0	6	192
HLD	51	0	5	192
TAP	52	0	4
TAP	52	192	4
TAP	53	0	3
TAP	53	96	3
BRK	53	192	3
STR	54	0	2
SI_	54	0	2	96	192	6
TAP	55	192	7
HLD	56	0	7	384
STR	58	0	5
SI_	58	0	5	96	192	1
TAP	59	192	1
TAP	60	0	0
TAP	60	192	0
TAP	61	0	0
TAP	61	0	7
TAP	61	96	0
TAP	61	96	7
TAP	61	192	0
TAP	61	192	7
TAP	62	0	6
TAP	62	96	6
TAP	62	192	6
TAP	63	0	6
TAP	63	0	7
STR	64	0	6
SI_	64	0	6	96	192	2
TAP	66	0	1
TAP	66	96	1
TAP	66	192	1
TAP	67	0	0
TAP	67	0	1
HLD	68	0	0	576
BRK	70	0	0
TAP	71	0	1
TAP	71	96	1
TAP	71	192	1
TAP	72	0	2
TAP	72	96	2
TAP	72	192	2
TAP	73	0	3
TAP	73	96	3
TAP	73	192	3
TAP	74	0	4
TAP	74	0	5
TAP	74	192	4
TAP	74	192	5
TAP	75	0	2
TAP	75	0	3
TAP	75	192	2
TAP	75	192	3
TAP	76	0	3
TAP	76	96	3
TAP	76	192	4
TAP	76	288	4
HLD	77	0	3	288
HLD	77	0	4	288

T_REC_TAP	129
T_REC_BRK	4
T_REC_XTP	0
T_REC_HLD	17
T_REC_XHO	0
T_REC_STR	6
T_REC_BST	0
T_REC_XST	0
T_REC_TTP	0
T_REC_THO	0
T_REC_SLD	6
T_REC_ALL	162
T_NUM_TAP	135
T_NUM_BRK	4
T_NUM_HLD	17
T_NUM_SLD	6
T_NUM_ALL	162
T_JUDGE_TAP	139
T_JUDGE_HLD	108
T_JUDGE_SLD	6
T_JUDGE_ALL	253
TTM_EACHPAIRS	23
TTM_SCR_TAP	67500
TTM_SCR_BRK	10400
TTM_SCR_HLD	17000
TTM_SCR_SLD	9000
TTM_SCR_ALL	103900
TTM_SCR_S	100400
TTM_SCR_SS	103500
TTM_RAT_ACV	10038

