VERSION	0.00.00	1.03.00
FES_MODE	0
BPM_DEF	146.000	146.000	146.000	146.000
MET_DEF	4	4
RESOLUTION	384
CLK_DEF	384
COMPATIBLE_CODE	MA2

BPM	0	0	146.000
MET	0	0	4	4

TAP	1	0	0
TAP	1	96	1
TAP	1	192	2
TAP	1	288	3
TAP	2	0	7
TAP	2	96	6
TAP	2	192	5
TAP	2	288	4
TAP	3	0	0
TAP	3	24	7
TAP	3	48	0
TAP	3	72	7
TAP	3	96	0
TAP	3	120	7
TAP	3	144	0
TAP	3	168	7
TAP	3	192	0
TAP	3	216	7
TAP	3	240	0
TAP	3	264	7
TAP	3	288	0
TAP	3	312	7
TAP	3	336	0
TAP	3	360	7
BRK	4	0	0
BRK	4	96	0
BRK	4	192	0
BRK	4	288	0
TAP	5	0	1
TAP	5	48	4
TAP	5	72	3
BRK	5	96	0
BRK	5	96	1
TAP	5	192	6
TAP	5	240	3
TAP	5	264	4
BRK	5	288	6
BRK	5	288	7
TAP	6	0	2
TAP	6	48	4
TAP	6	72	3
TAP	6	96	5
TAP	6	144	3
TAP	6	168	4
TAP	6	192	2
TAP	6	240	4
TAP	6	264	3
BRK	6	288	1
BRK	6	288	6
TAP	7	0	3
TAP	7	48	4
TAP	7	72	2
BRK	7	96	0
BRK	7	96	1
TAP	7	192	4
TAP	7	240	3
TAP	7	264	5
BRK	7	288	6
BRK	7	288	7
BRK	8	0	4
TAP	8	48	1
TAP	8	48	7
BRK	8	96	3
TAP	8	144	0
TAP	8	144	6
BRK	8	192	4
TAP	8	240	1
TAP	8	240	7
BRK	8	288	3
TAP	8	336	0
TAP	8	336	6
TAP	9	0	2
TAP	9	48	5
TAP	9	72	3
BRK	9	96	0
BRK	9	96	1
TAP	9	192	5
TAP	9	240	2
TAP	9	264	4
BRK	9	288	6
BRK	9	288	7
TAP	10	0	2
TAP	10	48	5
TAP	10	72	3
TAP	10	96	5
TAP	10	144	2
TAP	10	168	4
TAP	10	192	2
TAP	10	240	5
TAP	10	264	3
BRK	10	288	1
BRK	10	288	6
TAP	11	0	5
TAP	11	48	4
TAP	11	72	2
BRK	11	96	0
BRK	11	96	1
TAP	11	192	2
TAP	11	240	3
TAP	11	264	5
BRK	11	288	6
BRK	11	288	7
BRK	12	0	4
TAP	12	48	0
TAP	12	48	1
BRK	12	96	3
TAP	12	144	6
TAP	12	144	7
BRK	12	192	2
BRK	12	192	6
BRK	12	264	0
BRK	12	264	4
BRK	12	336	2
BRK	12	336	6
TAP	13	0	5
TAP	13	48	4
TAP	13	96	3
STR	13	144	1
SI_	13	144	1	96	48	4
TAP	13	168	1
TAP	13	216	7
TAP	13	240	7
TAP	13	288	6
TAP	13	336	5
TAP	14	0	2
TAP	14	48	3
TAP	14	96	4
STR	14	144	6
SI_	14	144	6	96	48	3
TAP	14	168	6
TAP	14	216	0
TAP	14	240	0
TAP	14	288	1
TAP	14	336	2
TAP	15	0	1
TAP	15	48	0
TAP	15	96	7
STR	15	144	5
SI_	15	144	5	96	48	0
TAP	15	168	5
TAP	15	216	3
TAP	15	240	3
TAP	15	288	2
TAP	15	336	1
BRK	16	0	2
TAP	16	48	6
TAP	16	48	7
BRK	16	96	5
TAP	16	144	0
TAP	16	144	1
BRK	16	192	2
BRK	16	192	4
TAP	16	240	6
TAP	16	240	7
BRK	16	288	3
BRK	16	288	5
TAP	16	336	0
TAP	16	336	1
TAP	17	0	2
TAP	17	48	4
TAP	17	96	5
STR	17	144	7
SCL	17	144	7	96	48	4
TAP	17	168	7
TAP	17	216	2
TAP	17	240	1
TAP	17	288	0
TAP	17	336	7
TAP	18	0	5
TAP	18	48	3
TAP	18	96	2
STR	18	144	0
SCR	18	144	0	96	48	3
TAP	18	168	0
TAP	18	216	5
TAP	18	240	6
TAP	18	288	7
TAP	18	336	0
TAP	19	0	2
TAP	19	48	0
TAP	19	96	7
STR	19	144	5
SCR	19	144	5	96	48	0
TAP	19	168	5
TAP	19	216	2
TAP	19	240	3
TAP	19	288	4
TAP	19	336	5
BRK	20	0	3
BRK	20	0	5
TAP	20	48	0
TAP	20	48	1
BRK	20	96	2
BRK	20	96	4
TAP	20	144	6
TAP	20	144	7
BRK	20	192	1
BRK	20	192	5
BRK	20	264	3
BRK	20	264	7
BRK	20	336	1
BRK	20	336	5
TAP	21	0	3
STR	21	0	4
SCR	21	0	4	96	192	3
TAP	21	48	3
TAP	21	48	4
HLD	22	0	1	72
TAP	22	72	2
TAP	22	144	4
HLD	22	192	7	72
TAP	22	264	5
TAP	22	336	3
TAP	23	0	1
TAP	23	48	6
TAP	23	72	7
TAP	23	96	6
TAP	23	144	0
TAP	23	192	0
TAP	23	192	2
TAP	23	240	1
TAP	23	240	3
TAP	23	288	2
TAP	23	288	4
TAP	23	336	3
TAP	23	336	5
HLD	24	0	6	72
TAP	24	72	5
TAP	24	144	3
HLD	24	192	0	72
TAP	24	264	2
TAP	24	336	4
TAP	25	0	3
TAP	25	0	7
TAP	25	96	0
TAP	25	96	4
TAP	25	192	5
TAP	25	192	7
TAP	25	240	4
TAP	25	240	6
TAP	25	288	3
TAP	25	288	5
TAP	25	336	2
TAP	25	336	4
HLD	26	0	1	72
TAP	26	72	2
TAP	26	144	3
TAP	26	144	5
HLD	26	192	7	72
TAP	26	264	5
TAP	26	336	2
TAP	26	336	4
TAP	27	0	1
TAP	27	48	7
TAP	27	72	0
TAP	27	96	7
TAP	27	144	1
TAP	27	192	0
TAP	27	192	5
TAP	27	240	2
TAP	27	240	7
TAP	27	288	1
TAP	27	288	4
TAP	27	336	3
TAP	27	336	6
TAP	28	0	3
TAP	28	0	4
STR	28	96	3
SI_	28	96	3	96	48	0
STR	28	96	4
SI_	28	96	4	96	48	7
BRK	28	192	3
BRK	28	192	4
TAP	29	0	1
TAP	29	48	1
TAP	29	96	5
TAP	29	144	5
TAP	29	168	0
TAP	29	216	0
TAP	29	264	0
TAP	29	288	7
TAP	29	336	6
STR	30	0	5
SI_	30	0	5	96	48	1
BRK	30	96	7
STR	30	192	2
SI_	30	192	2	96	48	6
BRK	30	288	0
TAP	31	0	1
TAP	31	48	1
TAP	31	96	4
TAP	31	120	3
TAP	31	168	7
TAP	31	216	7
TAP	31	264	7
TAP	31	288	6
TAP	31	336	5
STR	32	0	2
SI_	32	0	2	96	48	6
BRK	32	96	0
STR	32	192	5
SI_	32	192	5	96	48	1
BRK	32	288	7
BRK	33	0	0
BRK	33	0	4
BRK	33	96	2
BRK	33	96	6
BRK	33	192	1
BRK	33	192	5
BRK	33	288	3
BRK	33	288	7
STR	34	0	4
SI_	34	0	4	96	48	1
TAP	34	0	6
BRK	34	96	4
BRK	34	96	6
TAP	34	192	1
STR	34	192	3
SI_	34	192	3	96	48	6
BRK	34	288	1
BRK	34	288	3
TAP	35	0	6
TAP	35	48	6
TAP	35	96	3
TAP	35	120	4
TAP	35	168	0
TAP	35	216	0
TAP	35	264	0
TAP	35	288	1
TAP	35	336	2
STR	36	0	2
SI_	36	0	2	96	48	7
STR	36	0	6
SI_	36	0	6	96	48	3
BRK	36	96	2
BRK	36	96	6
STR	36	192	1
SI_	36	192	1	96	48	4
STR	36	192	5
SI_	36	192	5	96	48	0
BRK	36	288	1
BRK	36	288	5
BRK	37	0	6
BRK	37	0	7
BRK	37	96	0
BRK	37	96	1
BRK	37	192	0
BRK	37	192	4
BRK	37	264	3
BRK	37	264	7
BRK	37	336	1
BRK	37	336	5
TAP	38	0	2
TAP	38	24	3
TAP	38	48	2
TAP	38	96	5
TAP	38	120	4
TAP	38	168	2
TAP	38	168	6
TAP	38	216	7
TAP	38	240	0
TAP	38	264	1
TAP	38	288	2
TAP	39	0	5
TAP	39	24	4
TAP	39	48	5
TAP	39	96	2
TAP	39	120	3
STR	39	168	0
SCL	39	168	0	96	48	5
BRK	39	288	1
TAP	40	0	1
TAP	40	24	0
TAP	40	48	1
TAP	40	96	6
TAP	40	120	7
TAP	40	168	2
TAP	40	168	6
TAP	40	216	4
TAP	40	240	3
TAP	40	264	2
TAP	40	288	1
TAP	41	0	7
TAP	41	24	0
TAP	41	96	3
TAP	41	96	5
TAP	41	144	4
TAP	41	192	0
TAP	41	192	1
TAP	41	264	6
TAP	41	264	7
TAP	42	0	5
TAP	42	24	4
TAP	42	48	5
TAP	42	96	2
TAP	42	120	3
TAP	42	168	1
TAP	42	168	5
TAP	42	216	0
TAP	42	240	7
TAP	42	264	6
TAP	42	288	5
TAP	43	0	2
TAP	43	24	3
TAP	43	48	2
TAP	43	96	5
TAP	43	120	4
STR	43	168	7
SCR	43	168	7	96	48	2
BRK	43	288	6
TAP	44	0	6
TAP	44	24	7
TAP	44	48	6
TAP	44	96	1
TAP	44	120	0
TAP	44	168	1
TAP	44	168	5
TAP	44	216	3
TAP	44	240	4
TAP	44	264	5
TAP	44	288	6
BRK	45	0	6
BRK	45	0	7
BRK	45	96	0
BRK	45	96	1
BRK	45	192	2
BRK	45	192	6
BRK	45	264	1
BRK	45	264	5
BRK	45	336	3
BRK	45	336	7
TAP	46	0	3
TAP	46	24	4
TAP	46	96	6
TAP	46	144	4
HLD	46	192	2	72
TAP	46	240	0
TAP	46	264	0
TAP	46	336	2
TAP	47	0	4
TAP	47	24	3
TAP	47	96	1
TAP	47	144	3
TAP	47	192	1
TAP	47	192	5
TAP	47	240	6
TAP	47	264	2
TAP	47	264	6
TAP	48	0	4
TAP	48	24	3
TAP	48	96	1
TAP	48	144	3
HLD	48	192	5	72
TAP	48	240	7
TAP	48	264	7
TAP	48	336	5
TAP	49	0	3
TAP	49	24	4
TAP	49	96	6
TAP	49	144	4
TAP	49	192	2
TAP	49	192	6
TAP	49	240	1
TAP	49	264	1
TAP	49	264	5
TAP	50	0	1
TAP	50	24	0
TAP	50	96	6
TAP	50	144	0
HLD	50	192	7	72
TAP	50	240	5
TAP	50	264	5
TAP	50	336	4
TAP	51	0	6
TAP	51	24	7
TAP	51	96	1
TAP	51	144	7
TAP	51	192	0
TAP	51	192	4
TAP	51	240	6
TAP	51	264	2
TAP	51	264	6
TAP	52	0	5
TAP	52	24	4
TAP	52	96	2
TAP	52	144	4
HLD	52	192	5	72
TAP	52	240	7
TAP	52	264	7
TAP	52	336	7
BRK	53	0	0
BRK	53	0	4
BRK	53	96	2
BRK	53	96	6
BRK	53	192	1
BRK	53	192	5
BRK	53	264	3
BRK	53	264	7
BRK	53	336	1
BRK	53	336	5
TAP	54	0	2
TAP	54	48	5
TAP	54	72	4
TAP	54	96	5
TAP	54	144	2
TAP	54	168	3
TAP	54	192	2
TAP	54	240	5
TAP	54	264	4
BRK	54	288	5
TAP	54	336	2
TAP	54	360	3
TAP	55	0	1
TAP	55	48	6
TAP	55	72	4
TAP	55	96	6
TAP	55	144	1
TAP	55	168	3
TAP	55	192	1
TAP	55	240	6
TAP	55	264	4
BRK	55	288	6
TAP	55	336	1
TAP	55	360	3
TAP	56	0	0
TAP	56	48	7
TAP	56	72	3
TAP	56	96	7
TAP	56	144	0
TAP	56	168	4
TAP	56	192	0
TAP	56	240	7
TAP	56	264	3
BRK	56	288	7
TAP	56	336	0
TAP	56	360	4
BRK	57	0	0
BRK	57	96	2
BRK	57	192	4
BRK	57	288	6
TAP	58	0	0
TAP	58	48	7
TAP	58	72	3
TAP	58	96	7
TAP	58	144	1
TAP	58	168	5
TAP	58	192	1
TAP	58	240	6
TAP	58	264	2
BRK	58	288	6
TAP	58	336	0
TAP	58	360	4
TAP	59	0	0
TAP	59	48	7
TAP	59	72	4
TAP	59	96	7
TAP	59	144	1
TAP	59	168	3
TAP	59	192	1
TAP	59	240	6
TAP	59	264	4
BRK	59	288	6
TAP	59	336	0
TAP	59	360	3
TAP	60	0	0
TAP	60	24	4
TAP	60	48	1
TAP	60	72	5
TAP	60	96	2
TAP	60	120	6
TAP	60	144	3
TAP	60	168	7
TAP	60	192	4
TAP	60	216	0
TAP	60	240	3
TAP	60	264	7
BRK	60	288	2
TAP	60	312	6
TAP	60	336	1
TAP	60	360	5
BRK	61	0	0
BRK	61	96	0
BRK	61	192	2
BRK	61	192	6
BRK	61	264	0
BRK	61	264	4
BRK	61	336	2
BRK	61	336	6
TAP	62	0	1
TAP	62	48	4
TAP	62	72	3
TAP	62	96	5
TAP	62	144	2
TAP	62	168	4
TAP	62	192	1
TAP	62	240	6
TAP	62	264	3
BRK	62	288	0
BRK	62	288	1
TAP	63	0	6
TAP	63	48	3
TAP	63	72	4
TAP	63	96	2
TAP	63	144	5
TAP	63	168	3
TAP	63	192	6
TAP	63	240	1
TAP	63	264	4
BRK	63	288	6
BRK	63	288	7
TAP	64	0	2
TAP	64	0	3
TAP	64	48	1
TAP	64	48	4
TAP	64	96	4
TAP	64	96	5
TAP	64	144	3
TAP	64	144	6
TAP	64	192	2
TAP	64	192	5
TAP	64	240	3
TAP	64	264	4
BRK	64	288	1
BRK	64	288	6
BRK	65	0	4
BRK	65	0	6
TAP	65	48	0
BRK	65	96	1
BRK	65	96	3
TAP	65	144	7
BRK	65	192	4
BRK	65	192	6
TAP	65	240	0
TAP	65	240	1
BRK	65	288	1
BRK	65	288	3
TAP	65	336	6
TAP	65	336	7
TAP	66	0	2
TAP	66	48	5
TAP	66	72	4
TAP	66	96	6
TAP	66	144	2
TAP	66	168	3
TAP	66	192	1
TAP	66	240	6
TAP	66	264	1
BRK	66	288	0
BRK	66	288	7
TAP	67	0	3
TAP	67	24	4
TAP	67	48	2
TAP	67	72	5
TAP	67	96	1
TAP	67	120	6
TAP	67	144	0
TAP	67	168	7
TAP	67	192	3
TAP	67	192	4
TAP	67	240	3
TAP	67	264	4
BRK	67	288	1
BRK	67	288	6
TAP	68	0	4
BRK	68	48	0
BRK	68	48	1
TAP	68	96	3
BRK	68	144	6
BRK	68	144	7
STR	68	192	4
SCL	68	192	4	96	48	1
TAP	68	240	7
TAP	68	264	6
BRK	68	288	5
BRK	69	0	1
BRK	69	0	4
TAP	69	48	1
BRK	69	96	3
BRK	69	96	6
TAP	69	144	6
BRK	69	192	5
BRK	69	192	7
BRK	69	264	1
BRK	69	264	7
BRK	69	336	1
BRK	69	336	3
STR	70	0	2
SI_	70	0	2	96	48	7
STR	70	0	3
SI_	70	0	3	96	48	6
TAP	70	48	2
TAP	70	48	3
TAP	70	192	7
TAP	70	216	6
TAP	70	264	0
TAP	70	312	1
TAP	70	336	4
STR	71	0	4
SI_	71	0	4	96	48	1
STR	71	0	5
SI_	71	0	5	96	48	0
TAP	71	48	4
TAP	71	48	5
TAP	71	192	0
TAP	71	216	1
TAP	71	264	7
TAP	71	312	6
TAP	71	336	3
STR	72	0	3
SI_	72	0	3	96	48	0
STR	72	0	4
SI_	72	0	4	96	48	7
TAP	72	48	3
TAP	72	48	4
TAP	72	192	0
TAP	72	204	1
TAP	72	216	2
TAP	72	228	3
TAP	72	240	4
TAP	72	252	5
TAP	72	264	6
TAP	72	276	7
TAP	72	288	0
TAP	72	300	1
TAP	72	312	2
TAP	72	324	3
TAP	72	336	4
TAP	72	348	5
TAP	72	360	6
TAP	72	372	7
TAP	73	0	0
BRK	73	96	0
BRK	73	96	7

T_REC_TAP	508
T_REC_BRK	159
T_REC_XTP	0
T_REC_HLD	10
T_REC_XHO	0
T_REC_STR	28
T_REC_BST	0
T_REC_XST	0
T_REC_TTP	0
T_REC_THO	0
T_REC_SLD	28
T_REC_ALL	733
T_NUM_TAP	536
T_NUM_BRK	159
T_NUM_HLD	10
T_NUM_SLD	28
T_NUM_ALL	733
T_JUDGE_TAP	695
T_JUDGE_HLD	20
T_JUDGE_SLD	28
T_JUDGE_ALL	743
TTM_EACHPAIRS	127
TTM_SCR_TAP	268000
TTM_SCR_BRK	413400
TTM_SCR_HLD	10000
TTM_SCR_SLD	42000
TTM_SCR_ALL	733400
TTM_SCR_S	696000
TTM_SCR_SS	717500
TTM_RAT_ACV	10221

