VERSION	0.00.00	1.03.00
FES_MODE	0
BPM_DEF	146.000	146.000	146.000	146.000
MET_DEF	4	4
RESOLUTION	384
CLK_DEF	384
COMPATIBLE_CODE	MA2

BPM	0	0	146.000
MET	0	0	4	4

BRK	4	0	0
HLD	4	0	4	288
BRK	4	96	0
BRK	4	192	0
BRK	4	288	0
HLD	5	0	2	96
TAP	5	0	3
TAP	5	96	0
TAP	5	192	4
HLD	5	192	5	96
TAP	5	288	7
HLD	6	0	2	288
TAP	6	0	3
TAP	6	96	5
TAP	6	192	1
TAP	6	288	7
TAP	7	0	4
HLD	7	0	5	96
TAP	7	96	7
HLD	7	192	2	96
TAP	7	192	3
TAP	7	288	0
TAP	8	0	4
TAP	8	0	5
TAP	8	96	0
TAP	8	96	1
TAP	8	192	2
TAP	8	192	3
TAP	8	288	6
TAP	8	288	7
TAP	9	0	4
HLD	9	0	5	96
TAP	9	96	7
HLD	9	192	2	96
TAP	9	192	3
TAP	9	288	0
TAP	10	0	4
HLD	10	0	5	288
TAP	10	96	2
TAP	10	192	6
TAP	10	288	0
HLD	11	0	2	96
TAP	11	0	3
TAP	11	96	0
TAP	11	192	4
HLD	11	192	5	96
TAP	11	288	7
TAP	12	0	2
TAP	12	0	3
TAP	12	96	6
TAP	12	96	7
STR	12	192	4
SI_	12	192	4	96	48	1
STR	12	192	5
SI_	12	192	5	96	48	0
TAP	13	0	6
TAP	13	48	6
TAP	13	96	7
TAP	13	168	2
TAP	13	216	2
TAP	13	240	3
TAP	13	288	3
TAP	14	0	1
TAP	14	48	1
TAP	14	96	0
TAP	14	168	5
TAP	14	216	5
TAP	14	240	4
TAP	14	288	4
TAP	15	0	6
TAP	15	48	6
TAP	15	96	7
TAP	15	168	2
TAP	15	216	2
TAP	15	240	3
TAP	15	288	3
TAP	16	0	4
TAP	16	0	5
TAP	16	96	0
TAP	16	96	4
TAP	16	192	2
TAP	16	192	3
TAP	16	288	3
TAP	16	288	7
TAP	17	0	1
TAP	17	48	1
TAP	17	96	0
TAP	17	168	5
TAP	17	216	5
TAP	17	240	4
TAP	17	288	4
TAP	17	288	5
TAP	18	0	6
TAP	18	48	6
TAP	18	96	7
TAP	18	168	2
TAP	18	216	2
TAP	18	240	3
TAP	18	288	2
TAP	18	288	3
TAP	19	0	1
TAP	19	48	1
TAP	19	96	0
TAP	19	168	5
TAP	19	216	5
TAP	19	240	4
TAP	19	288	4
TAP	19	288	5
TAP	20	0	2
TAP	20	0	3
TAP	20	96	3
TAP	20	96	7
TAP	20	192	0
TAP	20	192	6
TAP	20	264	1
TAP	20	264	7
TAP	20	336	1
TAP	20	336	6
STR	21	0	0
SCR	21	0	0	96	96	3
STR	21	0	7
SCL	21	0	7	96	96	4
TAP	21	48	0
TAP	21	48	7
TAP	22	0	0
HLD	22	0	6	96
TAP	22	96	5
HLD	22	192	1	96
TAP	22	192	7
TAP	22	288	2
TAP	23	0	0
HLD	23	0	6	96
TAP	23	96	5
TAP	23	192	6
TAP	23	240	7
TAP	23	288	0
TAP	23	336	1
HLD	24	0	2	96
TAP	24	0	4
TAP	24	96	1
TAP	24	192	3
HLD	24	192	5	96
TAP	24	288	6
HLD	25	0	2	96
TAP	25	0	4
TAP	25	96	1
TAP	25	192	5
TAP	25	240	4
TAP	25	288	3
TAP	25	336	2
HLD	26	0	0	96
TAP	26	0	1
TAP	26	96	5
TAP	26	192	6
HLD	26	192	7	96
TAP	26	288	2
HLD	27	0	0	96
TAP	27	0	1
TAP	27	96	5
TAP	27	192	1
TAP	27	240	0
TAP	27	288	7
TAP	27	336	6
HLD	28	0	5	96
STR	28	96	4
SCL	28	96	4	96	96	1
TAP	29	0	2
TAP	29	0	3
STR	29	48	2
SI_	29	48	2	96	96	7
STR	29	48	3
SI_	29	48	3	96	96	6
TAP	29	96	2
TAP	29	96	3
TAP	30	0	4
HLD	30	0	5	96
STR	30	96	0
SI_	30	96	0	96	48	4
TAP	30	288	0
HLD	31	0	2	96
TAP	31	0	3
STR	31	96	7
SI_	31	96	7	96	48	3
TAP	31	288	7
TAP	32	0	4
HLD	32	0	5	96
STR	32	96	0
SI_	32	96	0	96	48	4
TAP	32	288	0
TAP	33	0	2
TAP	33	0	3
TAP	33	96	6
TAP	33	96	7
TAP	33	192	4
TAP	33	192	5
TAP	33	288	0
TAP	33	288	1
HLD	34	0	2	96
TAP	34	0	3
STR	34	96	7
SI_	34	96	7	96	48	3
TAP	34	288	7
TAP	35	0	4
HLD	35	0	5	96
STR	35	96	0
SI_	35	96	0	96	48	4
TAP	35	288	0
HLD	36	0	2	96
TAP	36	0	3
STR	36	96	7
SI_	36	96	7	96	48	3
TAP	36	288	7
TAP	37	0	4
TAP	37	0	5
TAP	37	96	0
TAP	37	96	1
TAP	37	192	2
TAP	37	192	4
TAP	37	264	3
TAP	37	264	5
TAP	37	336	3
TAP	37	336	4
STR	38	0	3
SCR	38	0	3	96	96	6
STR	38	0	4
SCL	38	0	4	96	96	1
TAP	39	0	7
TAP	39	48	5
TAP	39	96	5
TAP	39	120	4
TAP	39	168	2
TAP	39	216	2
TAP	39	240	3
TAP	39	288	3
TAP	40	0	0
TAP	40	48	2
TAP	40	96	2
TAP	40	120	3
TAP	40	168	5
TAP	40	216	5
TAP	40	240	4
TAP	40	288	4
TAP	41	0	7
TAP	41	48	5
TAP	41	96	5
TAP	41	120	4
TAP	41	168	2
TAP	41	216	2
TAP	41	240	3
TAP	41	288	2
TAP	41	288	3
TAP	42	0	0
TAP	42	0	3
TAP	42	48	2
TAP	42	96	2
TAP	42	120	3
TAP	42	168	5
TAP	42	216	5
TAP	42	240	4
TAP	42	288	4
TAP	42	288	5
TAP	43	0	4
TAP	43	0	7
TAP	43	48	5
TAP	43	96	5
TAP	43	120	4
TAP	43	168	2
TAP	43	216	2
TAP	43	240	3
TAP	43	288	2
TAP	43	288	3
TAP	44	0	0
TAP	44	0	3
TAP	44	48	2
TAP	44	96	2
TAP	44	120	3
TAP	44	168	5
TAP	44	216	5
TAP	44	240	4
TAP	44	288	4
TAP	44	288	5
TAP	45	0	0
TAP	45	0	1
TAP	45	96	2
TAP	45	96	3
TAP	45	192	0
TAP	45	192	6
TAP	45	264	1
TAP	45	264	7
TAP	45	336	0
TAP	45	336	7
TAP	46	0	1
TAP	46	48	5
TAP	46	96	5
TAP	46	120	4
TAP	46	168	2
TAP	46	216	2
TAP	46	240	3
TAP	46	288	3
TAP	47	0	6
TAP	47	48	2
TAP	47	96	2
TAP	47	120	3
TAP	47	168	5
TAP	47	216	5
TAP	47	240	4
TAP	47	288	4
TAP	48	0	1
TAP	48	48	5
TAP	48	96	5
TAP	48	120	4
TAP	48	168	2
TAP	48	216	2
TAP	48	240	3
TAP	48	288	3
TAP	49	0	6
TAP	49	48	2
TAP	49	96	2
TAP	49	120	3
TAP	49	168	5
TAP	49	216	5
TAP	49	240	4
TAP	49	288	4
TAP	49	288	5
TAP	50	0	3
TAP	50	48	1
TAP	50	96	1
TAP	50	120	0
TAP	50	168	6
TAP	50	216	6
TAP	50	240	7
TAP	50	288	6
TAP	50	288	7
TAP	51	0	4
TAP	51	48	6
TAP	51	96	6
TAP	51	120	7
TAP	51	168	1
TAP	51	216	1
TAP	51	240	0
TAP	51	288	0
TAP	51	288	1
TAP	52	0	3
TAP	52	48	1
TAP	52	96	1
TAP	52	120	0
TAP	52	168	6
TAP	52	216	6
TAP	52	240	7
TAP	52	288	6
TAP	52	288	7
TAP	53	0	2
TAP	53	0	3
TAP	53	96	0
TAP	53	96	1
TAP	53	192	3
TAP	53	192	5
TAP	53	264	2
TAP	53	264	4
BRK	53	336	3
BRK	53	336	4
STR	54	0	6
SI_	54	0	6	96	48	3
STR	54	96	2
SI_	54	96	2	96	48	7
STR	54	192	6
SI_	54	192	6	96	48	3
STR	54	288	2
SI_	54	288	2	96	48	7
STR	55	0	6
SCL	55	0	6	96	48	3
STR	55	96	2
SCL	55	96	2	96	48	7
STR	55	192	6
SCL	55	192	6	96	48	3
STR	55	288	2
SCL	55	288	2	96	48	7
STR	56	0	6
SI_	56	0	6	96	48	3
STR	56	96	2
SI_	56	96	2	96	48	7
STR	56	192	6
SI_	56	192	6	96	48	3
STR	56	288	2
SI_	56	288	2	96	48	7
BRK	57	0	6
BRK	57	96	0
BRK	57	192	2
BRK	57	288	4
STR	58	0	1
SI_	58	0	1	96	48	4
STR	58	96	5
SI_	58	96	5	96	48	0
STR	58	192	1
SI_	58	192	1	96	48	4
STR	58	288	5
SI_	58	288	5	96	48	0
STR	59	0	1
SCR	59	0	1	96	48	4
STR	59	96	5
SCR	59	96	5	96	48	0
STR	59	192	1
SCR	59	192	1	96	48	4
STR	59	288	5
SCR	59	288	5	96	48	0
STR	60	0	1
SI_	60	0	1	96	48	4
STR	60	96	5
SI_	60	96	5	96	48	0
STR	60	192	1
SI_	60	192	1	96	48	4
STR	60	288	5
SI_	60	288	5	96	48	0
BRK	61	0	1
BRK	61	96	7
TAP	61	192	3
TAP	61	192	5
TAP	61	264	2
TAP	61	264	4
BRK	61	336	3
BRK	61	336	4
STR	62	0	6
SI_	62	0	6	96	48	3
STR	62	96	2
SI_	62	96	2	96	48	7
STR	62	192	6
SI_	62	192	6	96	48	3
BRK	62	288	1
STR	63	0	1
SI_	63	0	1	96	48	4
STR	63	96	5
SI_	63	96	5	96	48	0
STR	63	192	1
SI_	63	192	1	96	48	4
BRK	63	288	6
TAP	64	0	4
TAP	64	0	5
TAP	64	48	3
TAP	64	48	4
TAP	64	96	2
STR	64	96	3
SI_	64	96	3	96	48	7
BRK	64	288	0
BRK	65	0	6
BRK	65	0	7
BRK	65	96	1
BRK	65	96	4
BRK	65	192	0
BRK	65	192	1
BRK	65	288	3
BRK	65	288	6
STR	66	0	1
SCR	66	0	1	96	48	4
STR	66	96	5
SCR	66	96	5	96	48	0
STR	66	192	1
SCR	66	192	1	96	48	4
BRK	66	288	6
TAP	67	0	3
TAP	67	0	4
TAP	67	48	2
TAP	67	48	3
TAP	67	96	3
TAP	67	96	4
TAP	67	144	4
TAP	67	144	5
TAP	67	192	3
TAP	67	192	4
BRK	67	288	1
BRK	67	288	6
TAP	68	0	0
TAP	68	0	7
BRK	68	48	6
TAP	68	96	0
TAP	68	96	7
BRK	68	144	1
STR	68	192	0
SCL	68	192	0	96	48	5
STR	68	192	7
SCR	68	192	7	96	48	2
TAP	69	0	3
TAP	69	0	4
TAP	69	96	2
TAP	69	96	5
TAP	69	192	0
TAP	69	192	6
TAP	69	264	1
TAP	69	264	7
BRK	69	336	0
BRK	69	336	7
STR	70	0	0
SCR	70	0	0	96	96	3
STR	70	0	7
SCL	70	0	7	96	96	4
TAP	70	48	0
TAP	70	48	7
STR	71	0	6
SUR	71	0	6	96	96	3
STR	71	0	7
SCR	71	0	7	96	96	2
TAP	71	48	6
TAP	71	48	7
STR	72	0	0
SCL	72	0	0	96	96	5
STR	72	0	1
SUL	72	0	1	96	96	4
TAP	72	48	0
TAP	72	48	1
TAP	73	0	0
TAP	73	0	7
TAP	73	48	3
TAP	73	48	4
BRK	73	96	1
BRK	73	96	6

T_REC_TAP	339
T_REC_BRK	34
T_REC_XTP	0
T_REC_HLD	27
T_REC_XHO	0
T_REC_STR	57
T_REC_BST	0
T_REC_XST	0
T_REC_TTP	0
T_REC_THO	0
T_REC_SLD	57
T_REC_ALL	514
T_NUM_TAP	396
T_NUM_BRK	34
T_NUM_HLD	27
T_NUM_SLD	57
T_NUM_ALL	514
T_JUDGE_TAP	430
T_JUDGE_HLD	66
T_JUDGE_SLD	57
T_JUDGE_ALL	553
TTM_EACHPAIRS	114
TTM_SCR_TAP	198000
TTM_SCR_BRK	88400
TTM_SCR_HLD	27000
TTM_SCR_SLD	85500
TTM_SCR_ALL	398900
TTM_SCR_S	383650
TTM_SCR_SS	395500
TTM_RAT_ACV	10085

