VERSION	0.00.00	1.03.00
FES_MODE	0
BPM_DEF	146.000	146.000	146.000	146.000
MET_DEF	4	4
RESOLUTION	384
CLK_DEF	384
COMPATIBLE_CODE	MA2

BPM	0	0	146.000
MET	0	0	4	4

TAP	1	0	0
TAP	1	96	0
TAP	1	192	0
TAP	1	288	0
TAP	2	0	0
TAP	2	96	0
TAP	2	192	0
TAP	2	288	0
TAP	3	0	0
TAP	3	96	0
TAP	3	192	0
TAP	3	288	0
TAP	4	0	0
TAP	4	0	7
TAP	4	96	0
TAP	4	96	7
TAP	4	192	0
TAP	4	192	7
BRK	4	288	0
BRK	4	288	7
TAP	5	0	2
TAP	5	96	0
TAP	5	96	7
TAP	5	192	5
TAP	5	288	0
TAP	5	288	7
TAP	6	0	3
TAP	6	96	2
TAP	6	192	1
TAP	6	288	0
TAP	6	288	7
TAP	7	0	5
TAP	7	96	0
TAP	7	96	7
TAP	7	192	1
TAP	7	288	0
TAP	7	288	7
TAP	8	0	0
TAP	8	0	1
TAP	8	96	0
TAP	8	96	7
TAP	8	192	6
TAP	8	192	7
TAP	8	288	0
TAP	8	288	7
TAP	9	0	5
TAP	9	96	0
TAP	9	96	7
TAP	9	192	2
TAP	9	288	0
TAP	9	288	7
TAP	10	0	4
TAP	10	96	5
TAP	10	192	6
TAP	10	288	0
TAP	10	288	7
TAP	11	0	6
TAP	11	0	7
TAP	11	96	0
TAP	11	96	7
TAP	11	192	0
TAP	11	192	1
TAP	11	288	0
TAP	11	288	7
TAP	12	0	3
TAP	12	0	4
TAP	12	96	2
TAP	12	96	5
TAP	12	192	1
TAP	12	192	6
TAP	12	288	0
TAP	12	288	7
STR	13	0	6
SCL	13	0	6	96	192	2
STR	14	0	1
SCR	14	0	1	96	192	5
STR	15	0	4
SI_	15	0	4	96	120	1
STR	15	0	5
SI_	15	0	5	96	120	0
TAP	16	0	6
TAP	16	0	7
TAP	16	96	0
TAP	16	96	1
TAP	16	192	6
TAP	16	192	7
TAP	16	288	0
TAP	16	288	1
STR	17	0	2
SUL	17	0	2	96	192	5
STR	18	0	6
SCR	18	0	6	96	192	1
STR	19	0	2
SI_	19	0	2	96	120	7
STR	19	0	3
SI_	19	0	3	96	120	6
TAP	20	0	0
TAP	20	0	7
TAP	20	96	1
TAP	20	96	6
TAP	20	192	2
TAP	20	192	3
TAP	20	288	4
TAP	20	288	5
STR	21	0	3
SI_	21	0	3	96	120	0
STR	21	0	4
SI_	21	0	4	96	120	7
TAP	22	0	1
TAP	22	96	0
TAP	22	96	1
TAP	22	192	6
TAP	22	288	6
TAP	22	288	7
STR	23	0	5
SUR	23	0	5	96	192	2
TAP	24	0	2
TAP	24	96	2
TAP	24	96	3
TAP	24	192	5
TAP	24	288	4
TAP	24	288	5
TAP	25	0	2
TAP	25	0	3
TAP	25	96	4
TAP	25	96	5
TAP	25	192	1
TAP	25	192	6
TAP	26	0	6
TAP	26	96	6
TAP	26	96	7
TAP	26	192	1
TAP	26	288	0
TAP	26	288	1
STR	27	0	2
SUL	27	0	2	96	192	5
TAP	28	0	0
TAP	28	0	7
STR	28	96	0
SI_	28	96	0	96	96	3
STR	28	96	7
SI_	28	96	7	96	96	4
HLD	30	0	0	96
HLD	30	0	1	96
HLD	30	192	6	96
HLD	30	192	7	96
TAP	31	0	2
TAP	31	96	2
TAP	31	96	3
TAP	31	192	5
TAP	31	288	4
TAP	31	288	5
HLD	32	0	2	96
HLD	32	0	3	96
HLD	32	192	4	96
HLD	32	192	5	96
TAP	33	0	1
TAP	33	96	0
TAP	33	96	1
TAP	33	192	6
TAP	33	288	6
TAP	33	288	7
HLD	34	0	0	96
HLD	34	0	1	96
HLD	34	192	6	96
HLD	34	192	7	96
TAP	35	0	2
TAP	35	96	2
TAP	35	96	4
TAP	35	192	5
TAP	35	288	3
TAP	35	288	5
HLD	36	0	2	96
HLD	36	0	3	96
HLD	36	192	4	96
HLD	36	192	5	96
TAP	37	0	3
TAP	37	0	4
TAP	37	96	2
TAP	37	96	5
TAP	37	192	1
TAP	37	192	6
TAP	37	288	0
TAP	37	288	7
STR	38	0	2
SCL	38	0	2	96	288	5
TAP	40	0	3
TAP	40	96	2
TAP	40	96	3
TAP	40	192	4
TAP	40	288	4
TAP	40	288	5
TAP	41	0	2
TAP	41	96	1
TAP	41	96	2
TAP	41	192	5
TAP	41	288	5
TAP	41	288	6
TAP	42	0	1
TAP	42	96	0
TAP	42	96	1
TAP	42	192	6
TAP	42	288	6
TAP	42	288	7
TAP	43	0	0
TAP	43	96	0
TAP	43	96	1
TAP	43	192	7
TAP	43	288	6
TAP	43	288	7
TAP	44	0	2
TAP	44	96	0
TAP	44	96	1
TAP	44	192	5
TAP	44	288	6
TAP	44	288	7
TAP	45	0	3
TAP	45	0	4
TAP	45	96	2
TAP	45	96	3
TAP	45	192	4
TAP	45	192	5
TAP	45	288	1
TAP	45	288	6
TAP	46	0	2
TAP	46	96	0
TAP	46	96	1
TAP	46	192	5
TAP	46	288	6
TAP	46	288	7
TAP	47	0	0
TAP	47	96	0
TAP	47	96	1
TAP	47	192	7
TAP	47	288	6
TAP	47	288	7
TAP	48	0	1
TAP	48	96	0
TAP	48	96	1
TAP	48	192	6
TAP	48	288	6
TAP	48	288	7
TAP	49	0	2
TAP	49	96	1
TAP	49	96	2
TAP	49	192	5
TAP	49	288	5
TAP	49	288	6
TAP	50	0	3
TAP	50	96	2
TAP	50	96	3
TAP	50	192	4
TAP	50	288	4
TAP	50	288	5
TAP	51	0	3
TAP	51	96	6
TAP	51	96	7
TAP	51	192	4
TAP	51	288	0
TAP	51	288	1
STR	52	0	1
SI_	52	0	1	96	96	3
STR	52	0	6
SI_	52	0	6	96	96	4
TAP	53	0	2
TAP	53	0	3
TAP	53	96	4
TAP	53	96	5
TAP	53	192	1
TAP	53	192	6
TAP	53	288	2
TAP	53	288	5
TAP	54	0	3
TAP	54	96	3
TAP	54	192	3
TAP	54	288	3
TAP	55	0	5
TAP	55	96	5
TAP	55	192	5
TAP	55	288	5
TAP	56	0	1
TAP	56	96	1
TAP	56	192	1
TAP	56	288	1
TAP	57	0	7
TAP	57	96	7
TAP	57	192	7
BRK	57	288	7
TAP	58	0	2
TAP	58	96	2
TAP	58	192	2
TAP	58	288	2
TAP	58	288	3
TAP	59	0	6
TAP	59	96	6
TAP	59	192	6
TAP	59	288	6
TAP	59	288	7
TAP	60	0	0
TAP	60	96	0
TAP	60	192	0
TAP	60	288	0
TAP	60	288	7
TAP	61	0	5
TAP	61	0	6
TAP	61	96	1
TAP	61	96	2
TAP	61	192	3
TAP	61	192	4
BRK	61	288	0
BRK	61	288	7
TAP	62	0	4
TAP	62	96	4
TAP	62	192	4
TAP	62	288	3
TAP	62	288	4
TAP	63	0	2
TAP	63	96	2
TAP	63	192	2
TAP	63	288	2
TAP	63	288	5
TAP	64	0	6
TAP	64	96	6
TAP	64	192	6
TAP	64	288	1
TAP	64	288	6
TAP	65	0	0
TAP	65	96	0
TAP	65	96	7
TAP	65	192	7
TAP	65	288	0
TAP	65	288	7
TAP	66	0	2
TAP	66	96	2
TAP	66	96	3
TAP	66	192	5
TAP	66	288	4
TAP	66	288	5
TAP	67	0	6
TAP	67	96	6
TAP	67	96	7
TAP	67	192	1
TAP	67	288	0
TAP	67	288	1
TAP	68	0	3
TAP	68	96	3
TAP	68	96	5
TAP	68	192	4
TAP	68	288	2
TAP	68	288	4
TAP	69	0	4
TAP	69	0	5
TAP	69	96	2
TAP	69	96	3
TAP	69	192	6
TAP	69	192	7
TAP	69	288	0
TAP	69	288	1
STR	70	0	3
SI_	70	0	3	96	96	1
STR	70	0	4
SI_	70	0	4	96	96	0
STR	71	0	3
SI_	71	0	3	96	96	7
STR	71	0	4
SI_	71	0	4	96	96	6
STR	72	0	3
SI_	72	0	3	96	96	0
STR	72	0	4
SI_	72	0	4	96	96	7
BRK	73	96	0
BRK	73	96	7

T_REC_TAP	303
T_REC_BRK	7
T_REC_XTP	0
T_REC_HLD	16
T_REC_XHO	0
T_REC_STR	23
T_REC_BST	0
T_REC_XST	0
T_REC_TTP	0
T_REC_THO	0
T_REC_SLD	23
T_REC_ALL	372
T_NUM_TAP	326
T_NUM_BRK	7
T_NUM_HLD	16
T_NUM_SLD	23
T_NUM_ALL	372
T_JUDGE_TAP	333
T_JUDGE_HLD	32
T_JUDGE_SLD	23
T_JUDGE_ALL	388
TTM_EACHPAIRS	121
TTM_SCR_TAP	163000
TTM_SCR_BRK	18200
TTM_SCR_HLD	16000
TTM_SCR_SLD	34500
TTM_SCR_ALL	231700
TTM_SCR_S	224100
TTM_SCR_SS	231000
TTM_RAT_ACV	10030

