VERSION	0.00.00	1.03.00
FES_MODE	0
BPM_DEF	146.000	146.000	146.000	146.000
MET_DEF	4	4
RESOLUTION	384
CLK_DEF	384
COMPATIBLE_CODE	MA2

BPM	0	0	146.000
MET	0	0	4	4

TAP	5	0	2
TAP	5	0	3
TAP	5	192	4
TAP	5	192	5
TAP	6	0	3
TAP	6	96	4
TAP	6	192	3
TAP	7	0	2
TAP	7	0	3
TAP	7	192	4
TAP	7	192	5
TAP	8	0	6
TAP	8	96	6
TAP	8	192	6
TAP	8	288	6
TAP	9	0	4
TAP	9	0	5
TAP	9	192	2
TAP	9	192	3
TAP	10	0	4
TAP	10	96	3
TAP	10	192	4
TAP	11	0	4
TAP	11	0	5
TAP	11	192	2
TAP	11	192	3
TAP	12	0	1
TAP	12	96	1
BRK	12	192	1
STR	13	0	1
SI_	13	0	1	96	288	6
HLD	15	0	7	384
STR	17	0	6
SI_	17	0	6	96	288	2
HLD	19	0	3	384
TAP	21	0	2
TAP	21	0	3
BRK	21	96	2
BRK	21	96	3
TAP	22	0	2
TAP	22	192	3
TAP	23	0	4
TAP	23	96	4
TAP	23	192	4
TAP	24	0	5
TAP	24	192	4
TAP	25	0	3
TAP	25	96	3
TAP	25	192	3
TAP	26	0	2
TAP	26	192	3
TAP	27	0	4
TAP	27	96	4
TAP	27	192	4
TAP	28	0	4
TAP	28	0	5
TAP	28	96	4
TAP	28	96	5
TAP	28	192	4
TAP	28	192	5
HLD	29	0	2	192
HLD	29	0	5	192
TAP	30	96	5
TAP	30	288	5
TAP	31	96	3
TAP	31	288	3
TAP	32	96	1
TAP	32	288	1
TAP	33	0	0
TAP	33	96	0
TAP	33	192	0
TAP	33	288	0
TAP	34	96	1
TAP	34	288	1
TAP	35	96	3
TAP	35	288	3
TAP	36	96	5
TAP	36	288	5
TAP	37	0	6
TAP	37	96	6
BRK	37	192	6
STR	38	0	6
SI_	38	0	6	96	288	1
TAP	40	0	2
TAP	40	192	2
TAP	41	0	1
TAP	41	192	1
STR	42	0	0
SI_	42	0	0	96	288	3
TAP	44	0	4
TAP	44	192	4
TAP	45	0	3
TAP	45	192	3
TAP	46	0	2
TAP	46	96	2
TAP	46	192	3
TAP	47	0	5
TAP	47	96	5
TAP	47	192	4
TAP	48	0	2
TAP	48	96	2
TAP	48	192	3
TAP	49	0	5
TAP	49	96	5
TAP	49	192	4
TAP	50	0	3
TAP	50	96	2
TAP	50	192	1
TAP	51	0	4
TAP	51	96	5
TAP	51	192	6
TAP	52	0	3
TAP	52	96	2
TAP	52	192	1
TAP	53	0	4
TAP	53	96	5
TAP	53	192	6
HLD	54	0	0	192
HLD	55	0	7	192
HLD	56	0	0	192
TAP	57	0	7
TAP	57	96	7
TAP	57	192	7
TAP	57	288	7
HLD	58	0	7	192
HLD	59	0	0	192
HLD	60	0	7	192
TAP	61	0	0
TAP	61	96	0
BRK	61	192	0
TAP	62	0	1
TAP	62	96	1
TAP	62	192	1
TAP	63	0	0
TAP	63	96	0
TAP	63	192	0
TAP	64	0	7
TAP	64	96	7
TAP	64	192	7
TAP	65	0	6
TAP	65	96	6
TAP	65	192	6
TAP	65	288	6
TAP	66	0	5
TAP	66	96	5
TAP	66	192	5
TAP	67	0	6
TAP	67	96	6
TAP	67	192	6
TAP	68	0	7
TAP	68	96	7
TAP	68	192	7
TAP	69	0	0
TAP	69	96	0
BRK	69	192	0
TAP	70	0	1
TAP	70	96	0
TAP	70	96	1
TAP	71	0	6
TAP	71	96	6
TAP	71	96	7
TAP	72	0	5
TAP	72	96	4
TAP	72	96	5
TAP	73	0	3
TAP	73	0	4
BRK	73	96	3
BRK	73	96	4

T_REC_TAP	142
T_REC_BRK	8
T_REC_XTP	0
T_REC_HLD	10
T_REC_XHO	0
T_REC_STR	4
T_REC_BST	0
T_REC_XST	0
T_REC_TTP	0
T_REC_THO	0
T_REC_SLD	4
T_REC_ALL	168
T_NUM_TAP	146
T_NUM_BRK	8
T_NUM_HLD	10
T_NUM_SLD	4
T_NUM_ALL	168
T_JUDGE_TAP	154
T_JUDGE_HLD	48
T_JUDGE_SLD	4
T_JUDGE_ALL	206
TTM_EACHPAIRS	19
TTM_SCR_TAP	73000
TTM_SCR_BRK	20800
TTM_SCR_HLD	10000
TTM_SCR_SLD	6000
TTM_SCR_ALL	109800
TTM_SCR_S	105750
TTM_SCR_SS	109000
TTM_RAT_ACV	10073

