VERSION	0.00.00	1.03.00
FES_MODE	0
BPM_DEF	240.000	240.000	240.000	240.000
MET_DEF	4	4
RESOLUTION	384
CLK_DEF	288
COMPATIBLE_CODE	MA2

BPM	0	0	240.000
MET	0	0	4	3

TAP	3	0	4
TAP	3	0	5
TAP	3	96	3
TAP	3	96	4
TAP	3	192	2
TAP	3	192	3
TAP	3	288	1
STR	3	350	0
SI_	3	350	0	96	48	4
TAP	4	62	0
TAP	4	192	2
TAP	4	192	3
TAP	4	288	3
TAP	4	288	4
TAP	5	0	4
TAP	5	0	5
TAP	5	96	6
STR	5	158	7
SI_	5	158	7	96	48	3
TAP	5	254	7
TAP	6	0	4
TAP	6	0	5
TAP	6	96	3
TAP	6	96	4
TAP	6	192	2
TAP	6	192	3
TAP	6	288	1
STR	6	350	0
SI_	6	350	0	96	48	4
TAP	7	62	0
TAP	7	192	2
TAP	7	192	3
TAP	7	288	3
TAP	7	288	4
TAP	8	0	4
TAP	8	0	5
TAP	8	96	6
STR	8	158	7
SI_	8	158	7	96	48	3
TAP	8	254	7
TAP	9	0	3
TAP	9	0	4
TAP	9	96	2
TAP	9	96	3
TAP	9	192	1
TAP	9	192	2
TAP	9	288	0
STR	9	350	7
SI_	9	350	7	96	48	3
TAP	10	62	7
TAP	10	192	3
TAP	10	192	4
TAP	10	288	4
TAP	10	288	5
TAP	11	0	5
TAP	11	0	6
TAP	11	96	7
STR	11	158	0
SI_	11	158	0	96	48	4
TAP	11	254	0
TAP	12	0	3
TAP	12	0	4
TAP	12	96	2
TAP	12	96	3
TAP	12	192	1
TAP	12	192	2
TAP	12	288	0
STR	12	350	7
SI_	12	350	7	96	48	3
TAP	13	62	7
TAP	13	192	3
TAP	13	192	4
TAP	13	288	4
TAP	13	288	5
TAP	14	0	5
TAP	14	0	6
TAP	14	96	7
STR	14	158	0
SI_	14	158	0	96	48	4
TAP	14	254	0
STR	15	0	7
SI_	15	0	7	96	96	3
STR	15	96	3
SI_	15	96	3	96	96	6
STR	15	192	1
SCL	15	192	1	96	192	3
STR	16	192	7
SV_	16	192	7	96	96	4
STR	16	288	7
SV_	16	288	7	96	96	2
STR	17	0	7
SI_	17	0	7	96	96	3
STR	18	0	0
SI_	18	0	0	96	96	4
STR	18	96	4
SI_	18	96	4	96	96	1
STR	18	192	6
SCR	18	192	6	96	192	4
STR	19	192	0
SV_	19	192	0	96	96	3
STR	19	288	0
SV_	19	288	0	96	96	5
STR	20	0	0
SI_	20	0	0	96	96	4
STR	21	0	7
SI_	21	0	7	96	96	3
STR	21	96	3
SI_	21	96	3	96	96	6
STR	21	192	1
SCL	21	192	1	96	192	3
STR	22	192	7
SV_	22	192	7	96	96	4
STR	22	288	7
SV_	22	288	7	96	96	2
STR	23	0	7
SI_	23	0	7	96	96	3
STR	24	0	0
SI_	24	0	0	96	96	4
STR	24	96	4
SI_	24	96	4	96	96	1
STR	24	192	6
SCR	24	192	6	96	192	4
STR	25	192	0
SV_	25	192	0	96	96	3
STR	25	288	0
SV_	25	288	0	96	96	5
STR	26	0	0
SI_	26	0	0	96	96	4
TAP	27	0	4
TAP	27	0	5
TAP	27	96	3
TAP	27	96	4
TAP	27	192	2
TAP	27	192	3
TAP	27	288	1
STR	27	350	0
SI_	27	350	0	96	48	4
TAP	28	62	0
TAP	28	192	2
TAP	28	192	3
TAP	28	288	3
TAP	28	288	4
TAP	29	0	4
TAP	29	0	5
TAP	29	96	6
STR	29	158	7
SI_	29	158	7	96	48	3
TAP	29	254	7
TAP	30	0	4
TAP	30	0	5
TAP	30	96	3
TAP	30	96	4
TAP	30	192	2
TAP	30	192	3
TAP	30	288	1
STR	30	350	0
SI_	30	350	0	96	48	4
TAP	31	62	0
TAP	31	192	2
TAP	31	192	3
TAP	31	288	3
TAP	31	288	4
TAP	32	0	4
TAP	32	0	5
TAP	32	96	6
STR	32	158	7
SI_	32	158	7	96	48	3
TAP	32	254	7
TAP	33	0	3
TAP	33	0	4
TAP	33	96	2
TAP	33	96	3
TAP	33	192	1
TAP	33	192	2
TAP	33	288	0
STR	33	350	7
SI_	33	350	7	96	48	3
TAP	34	62	7
TAP	34	192	3
TAP	34	192	4
TAP	34	288	4
TAP	34	288	5
TAP	35	0	5
TAP	35	0	6
TAP	35	96	7
STR	35	158	0
SI_	35	158	0	96	48	4
TAP	35	254	0
TAP	36	0	3
TAP	36	0	4
TAP	36	96	2
TAP	36	96	3
TAP	36	192	1
TAP	36	192	2
TAP	36	288	0
STR	36	350	7
SI_	36	350	7	96	48	3
TAP	37	62	7
TAP	37	192	3
TAP	37	192	4
TAP	37	288	2
TAP	37	288	5
TAP	38	0	3
TAP	38	0	5
TAP	38	96	2
TAP	38	96	4
TAP	38	192	3
TAP	38	240	2
TAP	38	288	1
TAP	38	336	0
STR	39	0	7
SCL	39	0	7	96	240	0
STR	40	0	2
SCL	40	0	2	96	96	7
STR	40	96	7
SCL	40	96	7	96	96	4
TAP	41	0	2
TAP	41	0	6
STR	41	192	5
SCR	41	192	5	96	96	0
STR	41	288	0
SCR	41	288	0	96	96	3
TAP	42	192	1
TAP	42	192	5
TAP	43	0	2
TAP	43	0	4
STR	43	96	0
SI_	43	96	0	96	96	4
STR	43	96	7
SI_	43	96	7	96	96	3
TAP	44	192	4
TAP	44	240	5
TAP	44	288	6
TAP	44	336	7
STR	45	0	0
SCR	45	0	0	96	240	7
STR	46	192	2
SUR	46	192	2	96	144	4
TAP	46	288	6
STR	47	96	5
SUL	47	96	5	96	144	3
TAP	47	192	1
TAP	48	0	1
TAP	48	62	2
TAP	48	96	1
TAP	48	192	0
TAP	48	192	3
TAP	48	288	6
TAP	48	350	5
TAP	49	0	6
TAP	49	96	4
TAP	49	96	7
TAP	49	192	1
TAP	49	254	0
TAP	49	288	1
TAP	50	0	2
TAP	50	0	7
TAP	50	96	6
TAP	50	158	7
TAP	50	192	6
TAP	50	288	0
TAP	50	288	5
STR	51	0	1
SUL	51	0	1	96	240	2
STR	51	0	6
SUR	51	0	6	96	240	5
STR	52	0	5
SCR	52	0	5	96	96	0
STR	52	96	7
SCR	52	96	7	96	96	2
STR	52	192	1
SCR	52	192	1	96	96	4
TAP	53	0	1
STR	53	192	2
SCL	53	192	2	96	96	7
STR	53	288	0
SCL	53	288	0	96	96	5
STR	54	0	5
SUL	54	0	5	96	192	2
TAP	55	0	1
TAP	55	0	5
TAP	55	96	0
TAP	55	96	4
STR	55	192	3
SCR	55	192	3	96	192	6
STR	55	192	7
SCR	55	192	7	96	192	2
BRK	57	0	0
BRK	57	0	4
BRK	57	96	3
BRK	57	96	7
TAP	57	254	3
TAP	57	254	6
TAP	57	350	5
TAP	57	374	4
TAP	58	14	5
TAP	58	38	4
TAP	58	62	5
TAP	58	192	3
TAP	58	192	5
TAP	58	288	2
TAP	58	288	5
TAP	59	0	1
TAP	59	0	5
TAP	59	96	1
TAP	59	96	6
TAP	59	192	1
TAP	59	192	7
TAP	59	288	0
TAP	59	288	1
STR	60	0	0
SI_	60	0	0	96	96	5
STR	60	0	1
SI_	60	0	1	96	96	4
BRK	60	96	0
BRK	60	96	1
STR	60	288	6
SI_	60	288	6	96	96	3
STR	60	288	7
SI_	60	288	7	96	96	2
BRK	61	0	6
BRK	61	0	7
STR	61	192	0
SI_	61	192	0	96	96	4
STR	61	192	7
SI_	61	192	7	96	96	5
BRK	61	288	0
BRK	61	288	7
STR	62	96	0
SI_	62	96	0	96	96	2
STR	62	96	7
SI_	62	96	7	96	96	3
BRK	62	192	0
BRK	62	192	7
TAP	63	0	3
TAP	63	48	4
TAP	63	96	2
TAP	63	96	5
TAP	63	192	2
TAP	63	240	5
TAP	63	288	3
TAP	63	336	4
TAP	64	48	2
TAP	64	96	5
TAP	64	144	1
TAP	64	192	6
TAP	64	240	0
TAP	64	336	0
TAP	65	0	4
TAP	65	48	1
TAP	65	96	5
TAP	65	144	2
TAP	65	192	6
TAP	65	240	1
TAP	65	288	7
TAP	66	0	0
TAP	66	0	6
TAP	66	96	1
TAP	66	96	6
TAP	66	192	2
TAP	66	192	6
TAP	66	288	3
TAP	66	288	7
TAP	67	0	2
TAP	67	0	6
TAP	67	96	1
TAP	67	96	5
TAP	67	192	2
TAP	67	192	5
TAP	67	288	2
TAP	67	288	6
TAP	68	0	2
TAP	68	0	7
TAP	68	96	1
TAP	68	96	5
TAP	68	192	2
TAP	68	192	6
TAP	68	288	3
TAP	68	288	7
HLD	69	0	4	96
HLD	69	0	6	96
HLD	69	144	0	96
HLD	69	144	5	96
STR	69	288	1
SV_	69	288	1	96	864	2
STR	69	288	2
SCR	69	288	2	96	864	1
BRK	75	48	0
BRK	75	48	5
BRK	75	144	1
BRK	75	144	4
TAP	75	288	2
TAP	75	312	3
TAP	75	336	2
TAP	75	360	3
TAP	76	0	2
TAP	76	24	3
TAP	76	48	2
TAP	76	72	3
TAP	76	96	2
TAP	76	120	3
TAP	76	144	2
TAP	76	168	3
TAP	76	192	2
TAP	76	264	1
TAP	76	264	5
TAP	76	336	0
TAP	76	336	4
TAP	77	24	1
TAP	77	24	5
TAP	77	96	2
TAP	77	96	6
TAP	77	168	3
TAP	77	168	7
TAP	77	240	2
TAP	77	240	6
TAP	77	312	1
TAP	77	312	5
BRK	78	0	0
BRK	78	0	4
BRK	78	48	3
BRK	78	48	7
BRK	78	168	3
BRK	78	168	7
BRK	78	216	0
BRK	78	216	4
TAP	79	288	1
TAP	79	320	2
TAP	79	352	3
TAP	80	0	6
TAP	80	32	5
TAP	80	64	4
TAP	80	96	0
TAP	80	128	1
TAP	80	160	2
TAP	80	192	7
TAP	80	224	6
TAP	80	256	5
TAP	81	96	3
TAP	81	96	5
BRK	81	192	2
BRK	81	192	6
TAP	82	0	2
TAP	82	0	4
BRK	82	96	1
BRK	82	96	5
TAP	82	192	3
TAP	82	288	7
STR	82	350	5
SCL	82	350	5	96	864	6
STR	82	350	6
SV_	82	350	6	96	864	5
TAP	87	0	1
TAP	87	62	0
TAP	87	158	6
TAP	87	192	7
TAP	87	288	0
TAP	88	0	7
TAP	88	96	1
TAP	88	96	6
TAP	88	192	5
TAP	88	254	4
TAP	88	350	2
TAP	89	0	3
TAP	89	62	5
TAP	89	96	4
TAP	89	192	2
TAP	89	288	0
TAP	89	288	7
TAP	90	0	6
TAP	90	62	7
TAP	90	158	1
TAP	90	192	0
TAP	90	288	7
TAP	91	0	0
TAP	91	96	1
TAP	91	96	6
TAP	91	192	2
TAP	91	254	3
TAP	91	350	6
TAP	92	0	7
TAP	92	96	4
TAP	92	158	5
TAP	92	192	3
TAP	92	254	6
TAP	92	288	2
TAP	92	350	7
TAP	93	0	1
TAP	93	62	0
TAP	93	158	6
TAP	93	192	7
TAP	93	288	0
TAP	94	0	7
TAP	94	96	1
TAP	94	96	6
TAP	94	192	2
TAP	94	254	3
TAP	94	350	5
TAP	95	0	4
TAP	95	62	3
TAP	95	96	2
TAP	95	192	5
TAP	95	288	0
TAP	95	288	7
TAP	96	0	1
TAP	96	62	0
TAP	96	158	6
TAP	96	192	7
TAP	96	288	1
TAP	96	288	6
TAP	97	0	2
TAP	97	0	5
TAP	97	96	3
TAP	97	96	4
TAP	97	192	2
TAP	97	254	3
TAP	97	350	5
TAP	98	0	4
TAP	98	96	2
TAP	98	96	5
TAP	98	192	1
TAP	98	192	6
BRK	98	288	0
BRK	98	288	7
HLD	99	0	3	77
TAP	99	77	4
TAP	99	158	3
TAP	99	192	2
HLD	99	288	4	77
TAP	99	365	3
TAP	100	62	4
TAP	100	96	5
HLD	100	192	2	77
TAP	100	269	3
TAP	100	350	2
TAP	101	0	1
HLD	101	96	5	77
TAP	101	173	4
TAP	101	254	5
TAP	101	288	6
HLD	102	0	1	77
TAP	102	77	0
TAP	102	158	1
TAP	102	192	2
HLD	102	288	6	77
TAP	102	365	7
TAP	103	62	6
TAP	103	96	5
HLD	103	192	1	77
TAP	103	269	6
TAP	103	350	0
TAP	104	0	7
HLD	104	96	6	77
TAP	104	173	1
TAP	104	254	7
TAP	104	288	0
STR	105	0	0
SCR	105	0	0	96	144	4
STR	105	144	5
SCL	105	144	5	96	144	1
STR	105	288	0
SCR	105	288	0	96	144	4
STR	106	48	5
SCL	106	48	5	96	144	1
STR	106	192	0
SCR	106	192	0	96	144	4
STR	106	336	5
SCL	106	336	5	96	144	0
STR	107	96	0
SI_	107	96	0	96	96	4
STR	108	0	7
SCL	108	0	7	96	144	3
STR	108	144	2
SCR	108	144	2	96	144	6
STR	108	288	7
SCL	108	288	7	96	144	3
STR	109	48	2
SCR	109	48	2	96	144	6
STR	109	192	7
SCL	109	192	7	96	144	3
STR	109	336	2
SCR	109	336	2	96	144	7
STR	110	96	7
SI_	110	96	7	96	96	3
TAP	111	0	7
TAP	111	96	6
TAP	111	192	0
TAP	111	192	5
TAP	111	288	0
TAP	112	0	1
TAP	112	96	2
TAP	112	96	7
TAP	112	192	2
TAP	112	288	3
TAP	113	0	1
TAP	113	0	4
TAP	113	96	5
TAP	113	192	4
TAP	113	288	3
TAP	113	288	6
TAP	114	0	1
TAP	114	96	3
TAP	114	192	4
TAP	114	288	6
TAP	115	0	7
TAP	115	96	0
TAP	115	192	2
TAP	115	288	5
TAP	116	0	4
TAP	116	96	3
TAP	116	192	5
TAP	116	288	2
TAP	117	0	5
TAP	117	96	4
TAP	117	192	5
TAP	117	288	2
TAP	118	0	3
TAP	118	96	2
TAP	118	192	4
TAP	118	288	4
TAP	119	0	4
TAP	119	96	3
TAP	119	192	3
TAP	119	288	3
TAP	120	0	3
TAP	120	0	4
TAP	120	96	3
TAP	120	96	4
TAP	120	192	2
TAP	120	192	5
TAP	120	288	1
TAP	120	288	6
TAP	121	0	1
TAP	121	0	6
STR	121	96	0
SI_	121	96	0	96	48	4
STR	121	96	7
SI_	121	96	7	96	48	3
BRK	121	192	0
BRK	121	192	7

T_REC_TAP	422
T_REC_BRK	32
T_REC_XTP	0
T_REC_HLD	12
T_REC_XHO	0
T_REC_STR	87
T_REC_BST	0
T_REC_XST	0
T_REC_TTP	0
T_REC_THO	0
T_REC_SLD	87
T_REC_ALL	640
T_NUM_TAP	509
T_NUM_BRK	32
T_NUM_HLD	12
T_NUM_SLD	87
T_NUM_ALL	640
T_JUDGE_TAP	541
T_JUDGE_HLD	12
T_JUDGE_SLD	87
T_JUDGE_ALL	640
TTM_EACHPAIRS	134
TTM_SCR_TAP	254500
TTM_SCR_BRK	83200
TTM_SCR_HLD	12000
TTM_SCR_SLD	130500
TTM_SCR_ALL	480200
TTM_SCR_S	462700
TTM_SCR_SS	477000
TTM_RAT_ACV	10067

