VERSION	0.00.00	1.03.00
FES_MODE	0
BPM_DEF	240.000	240.000	240.000	240.000
MET_DEF	4	4
RESOLUTION	384
CLK_DEF	384
COMPATIBLE_CODE	MA2

BPM	0	0	240.000
MET	0	0	4	3

TAP	3	0	4
TAP	3	96	3
TAP	3	192	2
TAP	3	288	3
TAP	4	0	4
TAP	4	96	5
TAP	4	192	4
TAP	4	288	3
TAP	5	0	2
TAP	5	96	0
TAP	5	192	1
TAP	5	288	2
TAP	6	0	3
TAP	6	96	4
TAP	6	192	5
TAP	6	288	4
TAP	7	0	3
TAP	7	96	2
TAP	7	192	3
TAP	7	288	4
TAP	8	0	5
TAP	8	96	7
TAP	8	192	6
TAP	8	288	5
TAP	9	0	3
TAP	9	0	4
TAP	9	96	3
TAP	9	192	2
TAP	9	288	3
TAP	9	288	4
TAP	10	0	4
TAP	10	96	5
TAP	10	192	3
TAP	10	192	4
TAP	10	288	3
TAP	11	0	2
TAP	11	96	0
TAP	11	96	7
TAP	11	192	1
TAP	11	288	2
TAP	12	0	3
TAP	12	0	4
TAP	12	96	4
TAP	12	192	5
TAP	12	288	3
TAP	12	288	4
TAP	13	0	3
TAP	13	96	2
TAP	13	192	3
TAP	13	192	4
TAP	13	288	4
TAP	14	0	5
TAP	14	96	0
TAP	14	96	7
TAP	14	192	6
TAP	14	288	5
TAP	15	0	2
TAP	15	0	3
TAP	15	96	2
TAP	15	96	3
TAP	15	192	1
TAP	15	192	4
TAP	15	288	3
TAP	16	0	2
TAP	16	96	3
TAP	16	192	4
TAP	16	288	4
TAP	16	288	5
TAP	17	0	4
TAP	17	0	5
TAP	17	96	3
TAP	17	96	6
TAP	17	192	5
TAP	17	288	4
TAP	18	0	2
TAP	18	0	3
TAP	18	96	2
TAP	18	96	3
TAP	18	192	1
TAP	18	192	4
TAP	18	288	3
TAP	19	0	2
TAP	19	96	3
TAP	19	192	4
TAP	19	288	4
TAP	19	288	5
TAP	20	0	0
TAP	20	0	5
TAP	20	96	2
TAP	20	96	3
TAP	20	192	0
TAP	20	288	0
TAP	21	0	4
TAP	21	0	5
TAP	21	96	4
TAP	21	96	5
TAP	21	192	3
TAP	21	192	6
TAP	21	288	4
TAP	22	0	5
TAP	22	96	4
TAP	22	192	3
TAP	22	288	2
TAP	22	288	3
TAP	23	0	2
TAP	23	0	3
TAP	23	96	1
TAP	23	96	4
TAP	23	192	2
TAP	23	288	3
TAP	24	0	4
TAP	24	0	5
TAP	24	96	4
TAP	24	96	5
TAP	24	192	3
TAP	24	192	6
TAP	24	288	4
TAP	25	0	5
TAP	25	96	4
TAP	25	192	3
HLD	25	288	4	144
HLD	25	288	5	144
BRK	26	96	3
BRK	26	96	6
TAP	27	0	1
TAP	27	0	3
TAP	27	96	2
TAP	27	192	5
TAP	27	288	4
TAP	27	288	6
TAP	28	0	5
TAP	28	96	2
TAP	28	192	1
TAP	28	192	3
TAP	28	288	2
TAP	29	0	5
TAP	29	96	4
TAP	29	96	6
TAP	29	192	5
TAP	29	254	5
TAP	29	288	4
TAP	30	0	5
TAP	30	0	7
TAP	30	96	6
TAP	30	192	1
TAP	30	288	0
TAP	30	288	2
TAP	31	0	1
TAP	31	96	6
TAP	31	192	5
TAP	31	192	7
TAP	31	288	6
TAP	32	0	1
TAP	32	96	0
TAP	32	96	2
TAP	32	192	1
TAP	32	255	1
TAP	32	288	0
TAP	33	0	0
TAP	33	0	3
TAP	33	96	2
TAP	33	192	5
TAP	33	288	4
TAP	33	288	7
TAP	34	0	5
TAP	34	96	2
TAP	34	192	0
TAP	34	192	3
TAP	34	288	2
TAP	35	0	5
TAP	35	96	4
TAP	35	96	7
TAP	35	192	6
TAP	35	254	6
TAP	35	288	5
TAP	36	0	4
TAP	36	0	7
TAP	36	96	5
TAP	36	192	2
TAP	36	288	0
TAP	36	288	3
TAP	37	0	2
TAP	37	96	5
TAP	37	192	4
TAP	37	192	7
TAP	37	288	5
TAP	38	0	2
TAP	38	96	0
TAP	38	96	3
TAP	38	192	1
TAP	38	254	1
TAP	38	288	2
STR	39	0	0
SUL	39	0	0	96	192	2
TAP	40	0	6
TAP	40	96	5
STR	40	192	4
SUL	40	192	4	96	192	7
STR	42	0	7
SUR	42	0	7	96	192	5
TAP	43	0	1
TAP	43	96	2
STR	43	192	3
SUR	43	192	3	96	192	0
STR	45	0	4
SUL	45	0	4	96	192	6
TAP	46	0	2
TAP	46	96	1
STR	46	192	0
SUL	46	192	0	96	192	3
STR	48	0	3
SUR	48	0	3	96	192	1
TAP	49	0	5
TAP	49	96	6
STR	49	192	7
SUR	49	192	7	96	192	4
STR	51	0	0
SUR	51	0	0	96	192	5
TAP	52	0	7
TAP	52	96	6
STR	52	192	5
SUL	52	192	5	96	288	4
STR	54	0	7
SUL	54	0	7	96	192	2
TAP	55	0	0
TAP	55	96	1
STR	55	192	2
SUR	55	192	2	96	288	3
TAP	57	0	1
STR	57	96	1
SUR	57	96	1	96	288	2
TAP	58	192	3
TAP	58	288	4
TAP	59	0	5
TAP	59	96	4
TAP	59	192	3
TAP	59	288	2
TAP	60	0	4
TAP	60	96	5
TAP	60	192	6
TAP	60	288	3
TAP	61	0	2
STR	61	96	1
SCL	61	96	1	96	384	3
TAP	63	0	5
TAP	63	96	4
TAP	63	192	3
TAP	63	192	6
TAP	63	288	2
TAP	64	0	3
TAP	64	96	1
TAP	64	96	4
TAP	64	192	6
TAP	64	288	5
TAP	65	0	4
TAP	65	0	7
TAP	65	96	1
TAP	65	192	2
TAP	65	288	0
TAP	65	288	3
TAP	66	0	7
TAP	66	96	6
TAP	66	192	0
TAP	66	192	5
TAP	66	288	0
TAP	67	0	1
TAP	67	96	2
TAP	67	96	7
TAP	67	192	3
TAP	67	288	4
TAP	68	0	2
TAP	68	0	5
TAP	68	96	7
TAP	68	192	0
TAP	68	288	1
TAP	68	288	6
HLD	69	0	0	96
HLD	69	0	5	96
HLD	69	144	2	96
HLD	69	144	7	96
STR	69	288	0
SCR	69	288	0	96	1344	5
HLD	69	288	6	1440
TAP	75	62	3
TAP	75	62	6
STR	75	158	2
SUR	75	158	2	96	226	1
TAP	75	158	3
TAP	76	269	6
TAP	76	336	5
TAP	77	29	4
TAP	77	96	0
TAP	77	173	1
TAP	77	240	2
TAP	77	317	3
STR	78	0	7
SUR	78	0	7	96	288	0
STR	79	192	2
SSL	79	192	2	96	288	6
TAP	81	0	7
TAP	81	96	2
TAP	81	96	3
TAP	81	192	3
TAP	81	192	6
TAP	81	288	0
TAP	82	0	4
TAP	82	0	5
TAP	82	96	1
TAP	82	96	4
TAP	82	192	2
TAP	82	192	3
TAP	82	288	6
TAP	82	288	7
TAP	82	350	7
STR	83	62	0
SCR	83	62	0	96	1090	7
TAP	87	0	0
TAP	87	0	5
TAP	87	96	6
TAP	87	158	6
TAP	87	192	7
TAP	87	288	0
TAP	88	0	1
TAP	88	96	0
TAP	88	96	1
TAP	88	192	2
TAP	88	192	7
TAP	88	288	1
TAP	88	350	1
TAP	89	0	0
TAP	89	96	7
TAP	89	192	6
TAP	89	288	6
TAP	89	288	7
TAP	90	0	0
TAP	90	0	5
TAP	90	96	6
TAP	90	158	6
TAP	90	192	7
TAP	90	288	0
TAP	91	0	1
TAP	91	96	0
TAP	91	96	1
TAP	91	192	2
TAP	91	192	7
TAP	91	288	1
TAP	91	350	1
TAP	92	0	0
TAP	92	96	7
TAP	92	192	6
TAP	92	288	6
TAP	92	288	7
TAP	93	0	0
TAP	93	0	5
TAP	93	96	6
TAP	93	158	6
TAP	93	192	7
TAP	93	288	2
TAP	94	0	3
TAP	94	96	0
TAP	94	96	1
TAP	94	192	2
TAP	94	192	7
TAP	94	288	1
TAP	94	350	1
TAP	95	0	0
TAP	95	96	5
TAP	95	192	4
TAP	95	288	6
TAP	95	288	7
TAP	96	0	0
TAP	96	0	5
TAP	96	96	6
TAP	96	158	6
TAP	96	192	7
TAP	96	288	2
TAP	97	0	3
TAP	97	96	0
TAP	97	96	1
TAP	97	192	2
TAP	97	192	7
TAP	97	288	1
TAP	97	350	1
TAP	98	0	0
TAP	98	96	5
TAP	98	192	4
TAP	98	288	6
TAP	98	288	7
TAP	99	0	1
TAP	99	96	2
TAP	99	158	2
TAP	99	192	3
TAP	99	288	6
TAP	100	0	5
TAP	100	62	5
TAP	100	96	4
TAP	100	192	1
TAP	100	288	2
TAP	100	350	2
TAP	101	0	3
TAP	101	96	5
TAP	101	158	4
TAP	101	254	4
TAP	101	288	5
TAP	102	0	6
TAP	102	96	5
TAP	102	158	5
TAP	102	192	4
TAP	102	288	1
TAP	103	0	2
TAP	103	62	2
TAP	103	96	3
TAP	103	192	6
TAP	103	288	5
TAP	103	350	5
TAP	104	0	4
TAP	104	96	2
TAP	104	158	3
TAP	104	254	3
TAP	104	288	2
HLD	105	0	5	240
HLD	105	144	3	240
HLD	105	288	4	240
HLD	106	48	2	240
HLD	106	192	3	240
HLD	106	336	1	240
HLD	107	96	5	240
HLD	107	240	0	240
HLD	108	0	7	240
HLD	108	144	2	240
HLD	108	288	3	240
HLD	109	48	4	144
STR	109	192	3
SCL	109	192	3	96	384	4
TAP	111	0	3
TAP	111	0	6
TAP	111	96	5
TAP	111	158	5
TAP	111	192	4
TAP	111	288	1
TAP	111	288	4
TAP	112	0	2
TAP	112	62	2
TAP	112	96	3
TAP	112	192	3
TAP	112	192	6
TAP	112	288	5
TAP	112	350	5
TAP	113	0	4
TAP	113	96	2
TAP	113	96	4
TAP	113	192	3
TAP	113	192	5
TAP	113	288	2
TAP	113	288	3
TAP	114	0	1
TAP	114	0	4
TAP	114	96	2
TAP	114	158	2
TAP	114	192	3
TAP	114	288	3
TAP	114	288	6
TAP	115	0	5
TAP	115	62	5
TAP	115	96	4
TAP	115	192	1
TAP	115	192	4
TAP	115	288	2
TAP	115	350	2
TAP	116	0	3
TAP	116	96	3
TAP	116	96	5
TAP	116	192	2
TAP	116	192	4
TAP	116	288	4
TAP	116	288	5
TAP	117	0	2
TAP	117	0	4
TAP	117	96	2
TAP	117	158	2
TAP	117	192	3
TAP	117	288	3
TAP	117	288	5
TAP	118	0	5
TAP	118	62	5
TAP	118	96	4
TAP	118	192	2
TAP	118	192	4
TAP	118	288	2
TAP	118	350	2
TAP	119	0	3
TAP	119	96	2
TAP	119	96	4
TAP	119	192	1
TAP	119	192	3
TAP	119	288	2
TAP	119	288	3
TAP	120	0	4
TAP	120	0	5
TAP	120	96	4
TAP	120	96	6
TAP	120	192	4
TAP	120	192	7
TAP	120	288	2
TAP	120	288	3
TAP	121	0	1
TAP	121	0	3
TAP	121	96	0
TAP	121	96	3
BRK	121	192	2
BRK	121	192	5

T_REC_TAP	448
T_REC_BRK	4
T_REC_XTP	0
T_REC_HLD	19
T_REC_XHO	0
T_REC_STR	20
T_REC_BST	0
T_REC_XST	0
T_REC_TTP	0
T_REC_THO	0
T_REC_SLD	20
T_REC_ALL	511
T_NUM_TAP	468
T_NUM_BRK	4
T_NUM_HLD	19
T_NUM_SLD	20
T_NUM_ALL	511
T_JUDGE_TAP	472
T_JUDGE_HLD	58
T_JUDGE_SLD	20
T_JUDGE_ALL	550
TTM_EACHPAIRS	107
TTM_SCR_TAP	234000
TTM_SCR_BRK	10400
TTM_SCR_HLD	19000
TTM_SCR_SLD	30000
TTM_SCR_ALL	293400
TTM_SCR_S	284250
TTM_SCR_SS	293000
TTM_RAT_ACV	10013

