VERSION	0.00.00	1.03.00
FES_MODE	0
BPM_DEF	240.000	240.000	240.000	240.000
MET_DEF	4	4
RESOLUTION	384
CLK_DEF	384
COMPATIBLE_CODE	MA2

BPM	0	0	240.000
MET	0	0	4	3

TAP	3	0	0
TAP	3	288	0
TAP	4	192	7
TAP	5	96	7
TAP	6	0	1
TAP	6	288	1
TAP	7	192	6
TAP	8	96	6
TAP	9	0	0
TAP	9	288	1
TAP	10	192	2
TAP	11	96	3
TAP	12	0	7
TAP	12	288	6
TAP	13	192	5
TAP	14	96	4
TAP	15	0	0
TAP	15	96	0
TAP	15	192	0
TAP	16	288	4
TAP	17	0	4
TAP	17	96	4
TAP	18	0	2
TAP	18	96	2
TAP	18	192	2
TAP	19	288	6
TAP	20	0	6
TAP	20	96	6
TAP	21	0	2
TAP	21	96	3
TAP	21	192	2
TAP	22	288	5
TAP	23	0	4
TAP	23	96	5
TAP	24	0	3
TAP	24	96	4
TAP	24	192	3
STR	25	288	0
SI_	25	288	0	96	288	4
TAP	27	0	2
TAP	27	288	3
TAP	28	192	2
TAP	29	96	3
TAP	30	0	5
TAP	30	288	4
TAP	31	192	5
TAP	32	96	4
TAP	33	0	0
TAP	33	96	0
TAP	33	288	7
TAP	34	0	7
TAP	34	192	0
TAP	34	288	0
TAP	35	96	7
TAP	35	192	7
TAP	36	0	1
TAP	36	96	1
TAP	36	288	6
TAP	37	0	6
TAP	37	192	1
TAP	37	288	1
TAP	38	96	6
TAP	38	192	6
STR	39	0	0
SCR	39	0	0	96	288	4
STR	40	192	7
SCL	40	192	7	96	288	3
STR	42	0	2
SCL	42	0	2	96	288	6
STR	43	192	5
SCR	43	192	5	96	288	1
TAP	45	0	0
TAP	45	0	1
TAP	45	288	0
TAP	45	288	1
TAP	46	192	2
TAP	46	192	3
TAP	47	96	4
TAP	47	96	5
STR	48	0	6
SI_	48	0	6	96	288	3
STR	48	0	7
SI_	48	0	7	96	288	2
HLD	51	0	2	576
HLD	52	192	3	576
HLD	54	0	4	576
HLD	55	192	5	288
TAP	57	0	3
TAP	57	0	4
TAP	57	96	3
TAP	57	96	4
HLD	58	192	2	288
HLD	60	0	4	288
HLD	61	192	1	288
HLD	61	192	6	288
TAP	63	0	2
TAP	63	96	3
TAP	63	192	2
TAP	63	288	5
TAP	64	0	4
TAP	64	96	5
TAP	64	192	3
TAP	64	288	4
TAP	65	0	3
TAP	65	96	4
TAP	65	192	5
TAP	65	288	6
TAP	66	0	1
TAP	66	96	0
TAP	66	192	1
TAP	66	288	6
TAP	67	0	7
TAP	67	96	6
TAP	67	192	0
TAP	67	288	7
TAP	68	0	0
BRK	68	96	7
TAP	69	0	0
TAP	69	96	7
TAP	69	192	0
TAP	69	288	6
TAP	70	0	1
TAP	70	96	6
TAP	70	192	2
TAP	70	288	5
TAP	71	0	2
TAP	71	96	4
TAP	71	192	3
TAP	71	288	4
TAP	72	0	2
TAP	72	96	4
TAP	72	192	2
TAP	72	288	5
TAP	73	0	3
TAP	73	96	5
TAP	73	192	1
TAP	73	288	6
TAP	74	0	0
BRK	74	96	7
STR	75	0	1
SI_	75	0	1	96	288	5
HLD	76	192	7	576
TAP	78	288	2
TAP	79	192	3
TAP	80	96	4
TAP	81	0	5
TAP	81	288	6
HLD	82	192	7	1440
HLD	84	0	0	864
TAP	87	0	0
TAP	87	96	0
TAP	87	288	7
TAP	88	0	7
TAP	88	192	1
TAP	88	288	1
TAP	89	96	6
TAP	89	192	6
TAP	90	0	0
TAP	90	96	0
TAP	90	288	2
TAP	91	0	2
TAP	91	192	4
TAP	91	288	4
TAP	92	96	6
BRK	92	192	6
TAP	93	0	6
TAP	93	96	7
TAP	93	288	1
TAP	94	0	0
TAP	94	192	5
TAP	94	288	4
TAP	95	96	2
TAP	95	192	3
TAP	96	0	0
TAP	96	96	7
TAP	96	288	3
TAP	97	0	4
TAP	97	192	1
TAP	97	288	6
TAP	99	0	2
TAP	99	96	3
TAP	99	192	2
TAP	99	288	5
TAP	100	0	4
TAP	100	96	5
TAP	100	192	3
TAP	100	288	4
TAP	101	0	3
TAP	101	96	6
TAP	101	192	1
TAP	101	288	6
TAP	102	0	0
TAP	102	0	1
TAP	102	288	2
TAP	102	288	3
TAP	103	192	4
TAP	103	192	5
TAP	104	96	6
TAP	104	96	7
STR	105	0	6
SCL	105	0	6	96	288	3
STR	105	0	7
SCR	105	0	7	96	288	2
STR	106	192	0
SCL	106	192	0	96	288	5
STR	106	192	1
SCR	106	192	1	96	288	4
STR	108	0	0
SI_	108	0	0	96	288	3
STR	108	0	7
SI_	108	0	7	96	288	4
BRK	109	192	0
BRK	109	192	7
TAP	111	0	0
TAP	111	96	7
TAP	111	192	0
TAP	111	288	6
TAP	112	0	1
TAP	112	96	6
TAP	112	192	2
TAP	112	288	5
TAP	113	0	2
TAP	113	96	4
TAP	113	192	3
TAP	113	288	4
TAP	114	0	0
TAP	114	96	0
TAP	114	192	0
TAP	114	288	4
TAP	115	0	4
TAP	115	96	4
TAP	115	192	2
TAP	115	288	2
TAP	116	0	2
TAP	116	96	6
TAP	116	192	6
TAP	116	288	6
TAP	117	0	1
TAP	117	96	1
TAP	117	192	1
TAP	117	288	5
TAP	118	0	5
TAP	118	96	5
TAP	118	192	3
TAP	118	288	3
TAP	119	0	3
TAP	119	96	7
TAP	119	192	7
TAP	119	288	7
TAP	120	0	0
TAP	120	96	7
TAP	120	192	0
TAP	120	288	0
TAP	120	288	7
TAP	121	0	0
TAP	121	0	7
TAP	121	96	0
TAP	121	96	7
BRK	121	192	1
BRK	121	192	6

T_REC_TAP	214
T_REC_BRK	7
T_REC_XTP	0
T_REC_HLD	11
T_REC_XHO	0
T_REC_STR	14
T_REC_BST	0
T_REC_XST	0
T_REC_TTP	0
T_REC_THO	0
T_REC_SLD	14
T_REC_ALL	260
T_NUM_TAP	228
T_NUM_BRK	7
T_NUM_HLD	11
T_NUM_SLD	14
T_NUM_ALL	260
T_JUDGE_TAP	235
T_JUDGE_HLD	63
T_JUDGE_SLD	14
T_JUDGE_ALL	312
TTM_EACHPAIRS	20
TTM_SCR_TAP	114000
TTM_SCR_BRK	18200
TTM_SCR_HLD	11000
TTM_SCR_SLD	21000
TTM_SCR_ALL	164200
TTM_SCR_S	158600
TTM_SCR_SS	163500
TTM_RAT_ACV	10042

