VERSION	0.00.00	1.03.00
FES_MODE	0
BPM_DEF	240.000	240.000	240.000	240.000
MET_DEF	4	4
RESOLUTION	384
CLK_DEF	384
COMPATIBLE_CODE	MA2

BPM	0	0	240.000
MET	0	0	4	3

TAP	3	0	3
TAP	3	288	3
TAP	4	192	3
TAP	5	96	3
TAP	6	0	4
TAP	6	288	4
TAP	7	192	4
TAP	8	96	4
TAP	9	0	2
TAP	9	288	2
TAP	10	192	2
TAP	11	96	2
TAP	12	0	5
TAP	12	288	5
TAP	13	192	5
TAP	14	96	5
TAP	15	0	7
TAP	15	96	7
STR	15	192	7
SI_	15	192	7	96	384	3
TAP	18	0	0
TAP	18	96	0
STR	18	192	0
SI_	18	192	0	96	384	4
TAP	21	0	6
TAP	21	96	6
STR	21	192	6
SI_	21	192	6	96	384	2
TAP	24	0	1
TAP	24	96	1
STR	24	192	1
SI_	24	192	1	96	480	5
TAP	27	0	3
TAP	27	96	3
TAP	28	192	3
TAP	28	288	3
TAP	30	0	4
TAP	30	96	4
TAP	31	192	4
TAP	31	288	4
TAP	33	0	2
TAP	33	96	2
TAP	34	192	2
TAP	34	288	2
TAP	36	0	5
TAP	36	96	5
TAP	37	192	5
TAP	37	288	5
STR	39	0	7
SI_	39	0	7	96	480	2
STR	42	0	2
SI_	42	0	2	96	480	6
STR	45	0	6
SI_	45	0	6	96	480	3
STR	48	0	3
SI_	48	0	3	96	480	0
HLD	51	0	6	288
HLD	52	192	7	288
HLD	54	0	0	288
HLD	55	192	1	288
BRK	57	0	0
BRK	57	0	7
TAP	58	192	0
TAP	58	192	7
TAP	59	96	0
TAP	59	96	7
STR	60	0	0
SI_	60	0	0	96	384	3
STR	60	0	7
SI_	60	0	7	96	384	4
TAP	63	0	1
TAP	63	96	1
TAP	63	192	1
TAP	64	192	0
TAP	64	288	0
TAP	65	0	0
TAP	66	0	7
TAP	66	96	7
TAP	66	192	7
TAP	67	192	6
TAP	67	288	6
TAP	68	0	6
HLD	69	0	7	2016
HLD	72	0	0	864
TAP	75	0	0
TAP	75	0	7
TAP	76	192	0
TAP	76	192	7
TAP	78	0	5
TAP	78	96	5
TAP	78	192	5
TAP	79	192	4
TAP	79	288	4
TAP	80	0	4
TAP	81	0	3
TAP	81	96	3
TAP	81	192	3
STR	82	192	1
SI_	82	192	1	96	384	6
STR	87	0	0
SI_	87	0	0	96	384	5
STR	90	0	5
SI_	90	0	5	96	384	1
STR	93	0	1
SI_	93	0	1	96	384	4
STR	96	0	4
SI_	96	0	4	96	384	7
TAP	99	0	0
TAP	99	96	0
TAP	99	192	0
TAP	100	192	1
TAP	100	288	1
TAP	101	0	1
TAP	102	0	2
TAP	102	96	2
TAP	102	192	2
TAP	103	192	4
TAP	103	288	4
TAP	104	0	4
TAP	105	0	4
TAP	105	0	5
TAP	105	288	4
TAP	105	288	5
TAP	106	192	2
TAP	106	192	3
TAP	107	96	2
TAP	107	96	3
HLD	108	0	4	576
HLD	108	288	3	288
TAP	111	0	3
TAP	111	96	3
TAP	111	192	3
TAP	111	288	3
TAP	112	192	3
TAP	112	288	3
TAP	113	0	3
TAP	113	96	3
TAP	114	0	4
TAP	114	96	4
TAP	114	192	4
TAP	114	288	4
TAP	115	192	4
TAP	115	288	4
TAP	116	0	4
TAP	116	96	4
TAP	117	0	6
TAP	117	96	6
TAP	117	192	6
TAP	117	288	6
TAP	118	192	6
TAP	118	288	6
TAP	119	0	6
TAP	119	96	6
TAP	120	0	0
TAP	120	96	0
TAP	120	192	0
TAP	120	288	7
TAP	121	0	7
TAP	121	96	7
TAP	121	192	0
TAP	121	192	7

T_REC_TAP	121
T_REC_BRK	2
T_REC_XTP	0
T_REC_HLD	8
T_REC_XHO	0
T_REC_STR	15
T_REC_BST	0
T_REC_XST	0
T_REC_TTP	0
T_REC_THO	0
T_REC_SLD	15
T_REC_ALL	161
T_NUM_TAP	136
T_NUM_BRK	2
T_NUM_HLD	8
T_NUM_SLD	15
T_NUM_ALL	161
T_JUDGE_TAP	138
T_JUDGE_HLD	51
T_JUDGE_SLD	15
T_JUDGE_ALL	204
TTM_EACHPAIRS	11
TTM_SCR_TAP	68000
TTM_SCR_BRK	5200
TTM_SCR_HLD	8000
TTM_SCR_SLD	22500
TTM_SCR_ALL	103700
TTM_SCR_S	100400
TTM_SCR_SS	103500
TTM_RAT_ACV	10019

