VERSION	0.00.00	1.03.00
FES_MODE	0
BPM_DEF	134.000	134.000	134.000	134.000
MET_DEF	4	4
RESOLUTION	384
CLK_DEF	384
COMPATIBLE_CODE	MA2

BPM	0	0	134.000
MET	0	0	4	4

STR	1	0	1
SCL	1	0	1	96	96	6
STR	1	192	5
SCL	1	192	5	96	96	2
STR	2	0	1
SCL	2	0	1	96	96	6
STR	2	192	5
SCL	2	192	5	96	96	2
HLD	3	0	0	96
TAP	3	96	2
HLD	3	192	7	96
STR	3	288	5
SI_	3	288	5	96	48	0
STR	4	0	2
SI_	4	0	2	96	48	7
STR	4	96	4
SUL	4	96	4	96	144	1
TAP	5	0	3
TAP	5	0	6
TAP	5	48	5
TAP	5	96	4
TAP	5	144	5
TAP	5	192	1
TAP	5	192	4
TAP	5	240	2
TAP	5	288	3
TAP	5	336	2
TAP	6	0	3
TAP	6	0	6
TAP	6	48	5
TAP	6	96	4
TAP	6	144	5
TAP	6	192	1
TAP	6	192	4
TAP	6	240	2
TAP	6	288	3
TAP	6	336	2
TAP	7	0	0
TAP	7	0	5
TAP	7	48	6
TAP	7	96	7
TAP	7	144	6
TAP	7	192	2
TAP	7	192	7
TAP	7	240	1
STR	7	288	7
SI_	7	288	7	96	48	2
STR	8	0	0
SI_	8	0	0	96	48	5
TAP	8	0	7
TAP	8	96	0
STR	8	96	6
SI_	8	96	6	96	48	3
STR	8	192	1
SI_	8	192	1	96	48	4
TAP	8	192	6
BRK	8	288	1
TAP	9	0	1
TAP	9	0	4
TAP	9	48	2
TAP	9	96	3
TAP	9	144	2
TAP	9	192	3
TAP	9	192	6
TAP	9	240	5
TAP	9	288	4
TAP	9	336	5
TAP	10	0	1
TAP	10	0	4
TAP	10	48	2
TAP	10	96	3
TAP	10	144	2
TAP	10	192	3
TAP	10	192	6
TAP	10	240	5
TAP	10	288	4
TAP	10	336	5
TAP	11	0	2
TAP	11	0	7
TAP	11	48	1
TAP	11	96	0
TAP	11	144	1
TAP	11	192	0
TAP	11	192	5
TAP	11	240	6
STR	11	288	0
SI_	11	288	0	96	48	5
TAP	12	0	0
STR	12	0	7
SI_	12	0	7	96	48	2
STR	12	96	1
SI_	12	96	1	96	48	4
TAP	12	96	7
TAP	12	192	1
STR	12	192	6
SI_	12	192	6	96	48	3
BRK	12	288	6
STR	13	0	7
SI_	13	0	7	96	96	4
STR	13	96	4
SI_	13	96	4	96	96	1
STR	13	192	1
SI_	13	192	1	96	96	6
STR	13	288	6
SI_	13	288	6	96	96	3
STR	14	0	3
SI_	14	0	3	96	96	0
BRK	14	96	0
TAP	14	192	7
TAP	14	240	6
TAP	14	288	5
TAP	14	336	4
TAP	15	0	1
TAP	15	0	3
TAP	15	48	2
TAP	15	96	3
TAP	15	144	0
TAP	15	192	4
TAP	15	192	6
TAP	15	240	5
TAP	15	288	4
TAP	15	336	7
TAP	16	0	1
TAP	16	0	3
TAP	16	48	2
TAP	16	96	3
STR	16	144	1
SSR	16	144	1	96	96	5
TAP	17	0	2
TAP	17	0	3
TAP	17	48	1
TAP	17	96	7
TAP	17	144	0
TAP	17	144	7
TAP	17	192	4
TAP	17	192	5
TAP	17	240	6
TAP	17	288	0
TAP	17	336	0
TAP	17	336	7
TAP	18	0	0
TAP	18	24	7
TAP	18	48	1
TAP	18	72	6
TAP	18	96	0
TAP	18	120	7
TAP	18	144	1
STR	18	192	3
SI_	18	192	3	96	48	0
STR	18	192	4
SI_	18	192	4	96	48	7
TAP	19	0	3
TAP	19	0	5
TAP	19	48	2
TAP	19	96	6
TAP	19	144	4
TAP	19	192	2
TAP	19	192	4
TAP	19	240	5
TAP	19	288	1
TAP	19	336	3
TAP	20	0	1
TAP	20	0	6
STR	20	48	0
SCL	20	48	0	96	48	5
STR	20	48	7
SCR	20	48	7	96	48	2
TAP	20	96	0
TAP	20	96	7
BRK	20	288	2
BRK	20	288	5
TAP	20	336	3
TAP	21	0	4
TAP	21	48	5
TAP	21	96	6
TAP	21	144	7
STR	21	192	2
SI_	21	192	2	96	48	7
STR	21	192	3
SI_	21	192	3	96	48	6
TAP	21	240	2
TAP	21	240	3
STR	22	0	2
SCL	22	0	2	96	48	7
STR	22	48	7
SUR	22	48	7	96	48	3
STR	22	96	3
SUR	22	96	3	96	144	6
TAP	23	0	2
TAP	23	0	3
TAP	23	48	4
TAP	23	96	4
TAP	23	96	5
TAP	23	144	3
TAP	23	192	0
TAP	23	192	5
TAP	23	240	2
TAP	23	240	3
TAP	23	288	1
TAP	23	288	4
TAP	23	336	2
TAP	23	336	3
TAP	24	0	4
TAP	24	0	5
TAP	24	48	3
TAP	24	96	2
TAP	24	96	3
TAP	24	144	4
TAP	24	192	2
TAP	24	192	7
TAP	24	240	4
TAP	24	240	5
STR	24	288	2
SCR	24	288	2	96	48	4
HLD	25	96	5	48
HLD	25	96	6	48
STR	25	192	5
SI_	25	192	5	96	48	2
BRK	25	288	1
STR	26	0	0
SI_	26	0	0	96	48	5
STR	26	48	5
SI_	26	48	5	96	48	1
STR	26	96	1
SI_	26	96	1	96	48	4
BRK	26	192	7
BRK	26	240	7
BRK	26	288	7
HLD	27	0	1	96
STR	27	0	7
SCL	27	0	7	96	96	2
TAP	27	192	0
TAP	27	240	0
TAP	27	288	0
TAP	27	288	1
STR	28	0	2
SCR	28	0	2	96	48	5
HLD	28	0	7	96
HLD	28	192	0	96
STR	28	192	5
SCL	28	192	5	96	48	2
STR	29	0	3
SI_	29	0	3	96	48	0
STR	29	0	4
SCL	29	0	4	96	48	1
STR	29	192	5
SI_	29	192	5	96	48	1
STR	29	192	6
SCL	29	192	6	96	48	3
STR	30	0	3
SI_	30	0	3	96	48	0
STR	30	48	0
SI_	30	48	0	96	48	5
STR	30	96	5
SUL	30	96	5	96	144	2
TAP	31	0	6
TAP	31	48	7
TAP	31	96	6
TAP	31	96	7
TAP	31	144	6
TAP	31	144	7
TAP	31	192	5
TAP	31	240	0
TAP	31	288	0
TAP	31	288	5
TAP	31	336	0
TAP	31	336	5
TAP	32	0	4
TAP	32	48	1
TAP	32	96	1
TAP	32	96	4
TAP	32	144	1
TAP	32	144	4
TAP	32	192	2
TAP	32	216	3
TAP	32	240	2
TAP	32	264	3
BRK	32	288	1
BRK	32	288	4
TAP	33	0	6
TAP	33	48	5
TAP	33	96	4
TAP	33	144	3
TAP	33	192	2
TAP	33	240	1
TAP	33	288	0
TAP	33	336	6
TAP	33	360	7
TAP	34	0	6
TAP	34	48	2
TAP	34	96	3
TAP	34	144	4
TAP	34	192	5
TAP	34	240	6
TAP	34	288	7
TAP	34	336	1
TAP	34	360	0
TAP	35	0	1
TAP	35	48	5
TAP	35	96	4
TAP	35	144	3
TAP	35	192	2
TAP	35	240	1
TAP	35	288	0
TAP	35	336	6
TAP	35	360	7
TAP	36	0	6
TAP	36	48	4
TAP	36	96	3
TAP	36	144	2
TAP	36	192	3
TAP	36	240	4
TAP	36	288	5
TAP	37	0	2
TAP	37	0	6
STR	37	48	2
SCL	37	48	2	96	96	7
STR	37	48	6
SCL	37	48	6	96	96	3
TAP	37	336	1
STR	38	0	1
SI_	38	0	1	96	48	6
TAP	38	240	6
STR	38	288	6
SUR	38	288	6	96	96	3
TAP	39	144	7
TAP	39	192	7
STR	39	240	7
SUR	39	240	7	96	96	5
TAP	40	144	7
STR	40	192	7
SI_	40	192	7	96	48	2
TAP	41	48	7
STR	41	96	7
SI_	41	96	7	96	48	2
STR	41	144	2
SI_	41	144	2	96	48	4
TAP	42	0	2
STR	42	48	2
SCL	42	48	2	96	96	5
BRK	42	288	0
TAP	43	0	3
TAP	43	0	6
TAP	43	48	5
TAP	43	72	4
TAP	43	96	5
TAP	43	144	6
TAP	43	192	1
TAP	43	192	4
TAP	43	240	2
TAP	43	264	3
TAP	43	288	2
TAP	43	336	1
TAP	44	0	3
TAP	44	0	6
TAP	44	48	5
TAP	44	72	4
TAP	44	96	5
TAP	44	144	6
TAP	44	192	1
TAP	44	192	4
TAP	44	240	2
TAP	44	264	3
TAP	44	288	2
TAP	44	336	1
TAP	45	0	2
TAP	45	0	7
TAP	45	48	1
TAP	45	72	0
TAP	45	96	1
TAP	45	144	2
TAP	45	192	0
TAP	45	192	5
TAP	45	240	6
TAP	45	264	7
STR	45	288	6
SI_	45	288	6	96	48	3
STR	46	0	1
SI_	46	0	1	96	48	4
TAP	46	0	6
TAP	46	96	1
STR	46	96	7
SI_	46	96	7	96	48	2
STR	46	192	0
SI_	46	192	0	96	48	5
BRK	46	192	7
BRK	46	288	0
TAP	47	0	1
TAP	47	0	4
TAP	47	48	2
TAP	47	72	3
TAP	47	96	2
TAP	47	144	1
TAP	47	192	3
TAP	47	192	6
TAP	47	240	5
TAP	47	264	4
TAP	47	288	5
TAP	47	336	6
TAP	48	0	1
TAP	48	0	4
TAP	48	48	2
TAP	48	72	3
TAP	48	96	2
TAP	48	144	1
TAP	48	192	3
TAP	48	192	6
TAP	48	240	5
TAP	48	264	4
TAP	48	288	5
TAP	48	336	6
TAP	49	0	0
TAP	49	0	5
TAP	49	48	6
TAP	49	72	7
TAP	49	96	6
TAP	49	144	5
TAP	49	192	2
TAP	49	192	7
TAP	49	240	1
TAP	49	264	0
STR	49	288	1
SI_	49	288	1	96	48	4
TAP	50	0	1
STR	50	0	6
SI_	50	0	6	96	48	3
STR	50	96	0
SI_	50	96	0	96	48	5
TAP	50	96	6
BRK	50	192	0
STR	50	192	7
SI_	50	192	7	96	48	2
BRK	50	288	7
TAP	51	0	0
TAP	51	0	5
TAP	51	48	6
TAP	51	72	7
TAP	51	96	6
TAP	51	144	2
TAP	51	168	3
TAP	51	192	2
TAP	51	240	6
TAP	51	264	7
TAP	51	288	6
TAP	51	336	6
TAP	51	336	7
TAP	52	0	2
TAP	52	0	7
TAP	52	48	1
TAP	52	72	0
TAP	52	96	1
TAP	52	144	5
TAP	52	168	4
TAP	52	192	5
TAP	52	240	1
TAP	52	264	0
TAP	52	288	1
TAP	52	336	0
TAP	52	336	1
TAP	53	0	1
TAP	53	0	6
TAP	53	48	5
TAP	53	72	4
TAP	53	96	5
TAP	53	144	2
TAP	53	168	3
TAP	53	192	2
TAP	53	240	6
TAP	53	264	7
STR	53	288	6
SI_	53	288	6	96	48	3
STR	54	0	2
SI_	54	0	2	96	48	7
BRK	54	0	6
BRK	54	96	2
STR	54	96	5
SI_	54	96	5	96	48	0
STR	54	192	1
SI_	54	192	1	96	48	4
BRK	54	192	5
BRK	54	288	1
TAP	55	0	3
TAP	55	0	6
TAP	55	48	5
TAP	55	72	4
TAP	55	96	5
TAP	55	144	1
TAP	55	168	0
TAP	55	192	1
TAP	55	240	5
TAP	55	264	4
TAP	55	288	5
TAP	55	336	4
TAP	55	336	5
TAP	56	0	1
TAP	56	0	4
TAP	56	48	2
TAP	56	72	3
TAP	56	96	2
TAP	56	144	6
TAP	56	168	7
TAP	56	192	6
TAP	56	240	2
TAP	56	264	3
TAP	56	288	2
TAP	56	336	2
TAP	56	336	3
TAP	57	0	2
TAP	57	0	5
TAP	57	48	1
TAP	57	72	0
TAP	57	96	1
TAP	57	144	6
TAP	57	168	7
TAP	57	192	6
TAP	57	240	2
TAP	57	264	3
STR	57	288	2
SI_	57	288	2	96	48	7
BRK	58	0	2
STR	58	0	6
SI_	58	0	6	96	48	3
STR	58	96	1
SI_	58	96	1	96	48	4
BRK	58	96	6
BRK	58	192	1
STR	58	192	5
SI_	58	192	5	96	48	0
BRK	58	288	5
STR	59	0	3
SI_	59	0	3	96	96	0
STR	59	96	0
SI_	59	96	0	96	96	5
STR	59	192	5
SI_	59	192	5	96	48	3
STR	60	0	4
SV_	60	0	4	96	48	1
STR	60	0	5
SUR	60	0	5	96	48	1
BRK	60	192	1
TAP	60	288	0
TAP	60	288	7
TAP	60	312	0
TAP	60	312	7
BRK	60	360	1
BRK	60	360	6

T_REC_TAP	362
T_REC_BRK	27
T_REC_XTP	0
T_REC_HLD	7
T_REC_XHO	0
T_REC_STR	75
T_REC_BST	0
T_REC_XST	0
T_REC_TTP	0
T_REC_THO	0
T_REC_SLD	75
T_REC_ALL	546
T_NUM_TAP	437
T_NUM_BRK	27
T_NUM_HLD	7
T_NUM_SLD	75
T_NUM_ALL	546
T_JUDGE_TAP	464
T_JUDGE_HLD	12
T_JUDGE_SLD	75
T_JUDGE_ALL	551
TTM_EACHPAIRS	98
TTM_SCR_TAP	218500
TTM_SCR_BRK	70200
TTM_SCR_HLD	7000
TTM_SCR_SLD	112500
TTM_SCR_ALL	408200
TTM_SCR_S	393350
TTM_SCR_SS	405500
TTM_RAT_ACV	10066

