VERSION	0.00.00	1.03.00
FES_MODE	0
BPM_DEF	134.000	134.000	134.000	134.000
MET_DEF	4	4
RESOLUTION	384
CLK_DEF	384
COMPATIBLE_CODE	MA2

BPM	0	0	134.000
MET	0	0	4	4

TAP	4	0	2
TAP	4	0	3
TAP	4	96	4
TAP	4	96	5
STR	4	192	3
SCL	4	192	3	96	48	0
STR	4	192	4
SCR	4	192	4	96	48	7
TAP	5	0	0
TAP	5	0	1
TAP	5	96	2
TAP	5	192	6
TAP	5	192	7
TAP	5	288	5
TAP	6	0	0
TAP	6	0	1
TAP	6	96	2
TAP	6	192	6
TAP	6	192	7
TAP	6	288	5
TAP	7	0	1
TAP	7	0	7
TAP	7	96	2
TAP	7	192	0
TAP	7	192	6
TAP	7	288	5
BRK	8	0	0
BRK	8	96	0
BRK	8	192	0
BRK	8	288	0
HLD	9	0	0	96
TAP	9	0	1
TAP	9	96	2
TAP	9	192	6
HLD	9	192	7	96
TAP	9	288	5
HLD	10	0	0	96
TAP	10	0	1
TAP	10	96	2
TAP	10	192	6
HLD	10	192	7	96
TAP	10	288	5
TAP	11	0	0
HLD	11	0	1	96
TAP	11	96	2
HLD	11	192	6	96
TAP	11	192	7
TAP	11	288	5
BRK	12	0	0
BRK	12	96	0
BRK	12	192	0
BRK	12	288	0
HLD	13	0	6	672
HLD	14	0	2	288
TAP	15	0	1
TAP	15	96	1
TAP	15	192	5
TAP	15	240	4
TAP	15	288	5
TAP	16	0	6
TAP	16	96	6
TAP	16	192	2
TAP	16	240	3
TAP	16	288	2
TAP	17	0	1
TAP	17	48	1
TAP	17	96	1
TAP	17	192	6
TAP	17	240	6
TAP	17	288	6
TAP	18	0	3
TAP	18	48	4
TAP	18	96	3
STR	18	192	3
SI_	18	192	3	96	48	0
STR	18	192	4
SI_	18	192	4	96	48	7
TAP	19	0	1
TAP	19	96	0
TAP	19	96	1
TAP	19	192	5
TAP	19	240	4
TAP	19	288	3
TAP	19	288	5
TAP	20	0	6
TAP	20	96	6
TAP	20	96	7
TAP	20	192	2
TAP	20	240	3
TAP	20	288	2
TAP	20	288	4
TAP	21	0	0
TAP	21	0	1
TAP	21	96	6
TAP	21	96	7
TAP	21	192	3
TAP	21	240	4
TAP	21	288	2
TAP	21	288	5
STR	22	0	3
SCL	22	0	3	96	96	0
STR	22	96	0
SUR	22	96	0	96	96	6
TAP	23	0	1
TAP	23	48	0
TAP	23	96	1
TAP	23	192	6
TAP	23	240	7
TAP	23	288	6
TAP	24	0	2
TAP	24	48	3
TAP	24	96	2
TAP	24	192	5
TAP	24	240	4
TAP	24	288	5
TAP	25	0	2
TAP	25	0	3
TAP	25	96	4
TAP	25	96	5
TAP	25	192	3
TAP	25	240	4
TAP	25	288	3
TAP	26	0	0
TAP	26	0	1
STR	26	96	6
SUL	26	96	6	96	96	3
TAP	26	96	7
TAP	27	0	0
TAP	27	48	6
TAP	27	96	0
TAP	27	144	6
TAP	27	192	2
TAP	27	240	3
TAP	27	288	1
TAP	27	288	4
TAP	28	0	7
TAP	28	48	1
TAP	28	96	7
TAP	28	144	1
TAP	28	192	5
TAP	28	240	4
TAP	28	288	3
TAP	28	288	6
STR	29	0	1
SI_	29	0	1	96	48	6
STR	29	0	2
SI_	29	0	2	96	48	5
STR	29	192	6
SI_	29	192	6	96	48	3
STR	29	192	7
SI_	29	192	7	96	48	2
TAP	30	0	0
TAP	30	0	4
STR	30	96	3
SCL	30	96	3	96	96	0
STR	30	96	7
SCL	30	96	7	96	96	4
TAP	31	0	7
TAP	31	48	7
TAP	31	96	6
TAP	31	144	6
TAP	31	192	5
TAP	31	240	5
TAP	31	288	4
TAP	31	336	4
TAP	32	0	3
TAP	32	48	3
TAP	32	96	2
TAP	32	144	2
TAP	32	192	1
TAP	32	240	1
BRK	32	288	0
BRK	32	288	7
TAP	33	0	0
HLD	33	0	7	288
TAP	33	96	1
TAP	33	192	2
TAP	33	288	3
HLD	34	0	0	288
TAP	34	0	7
TAP	34	96	6
TAP	34	192	5
TAP	34	288	4
TAP	35	0	6
TAP	35	0	7
TAP	35	96	0
TAP	35	96	5
TAP	35	192	1
TAP	35	192	4
TAP	35	288	2
TAP	35	288	3
TAP	36	0	0
TAP	36	0	1
TAP	36	96	0
TAP	36	96	1
TAP	36	192	6
TAP	36	192	7
TAP	36	288	6
TAP	36	288	7
TAP	37	0	1
TAP	37	48	0
TAP	37	96	1
TAP	37	144	0
TAP	37	192	1
TAP	37	240	0
TAP	37	288	2
TAP	37	288	7
TAP	38	0	5
TAP	38	48	4
TAP	38	96	5
TAP	38	144	4
TAP	38	192	5
TAP	38	240	4
TAP	38	288	3
TAP	38	288	6
TAP	39	0	3
TAP	39	48	4
TAP	39	96	2
TAP	39	144	5
TAP	39	192	1
TAP	39	240	6
TAP	39	288	0
TAP	39	336	7
TAP	40	0	0
TAP	40	0	1
TAP	40	96	2
TAP	40	96	3
TAP	40	192	4
TAP	40	192	5
TAP	40	288	6
TAP	40	288	7
HLD	41	0	1	288
HLD	41	0	6	672
BRK	42	0	7
TAP	43	0	0
TAP	43	0	1
TAP	43	96	4
TAP	43	96	5
TAP	43	192	6
TAP	43	192	7
TAP	43	288	2
TAP	43	288	3
TAP	44	0	0
TAP	44	0	1
TAP	44	96	4
TAP	44	96	5
TAP	44	192	6
TAP	44	192	7
TAP	44	288	2
TAP	44	288	3
TAP	45	0	1
TAP	45	0	7
TAP	45	96	4
TAP	45	96	5
TAP	45	192	0
TAP	45	192	6
TAP	45	288	2
TAP	45	288	3
BRK	46	0	0
BRK	46	96	0
BRK	46	192	0
BRK	46	288	0
HLD	47	0	1	192
TAP	47	96	2
HLD	47	192	6	192
TAP	47	288	5
HLD	48	0	1	192
TAP	48	96	2
HLD	48	192	6	192
TAP	48	288	5
HLD	49	0	0	192
TAP	49	96	3
HLD	49	192	7	192
TAP	49	288	4
BRK	50	0	0
BRK	50	96	0
BRK	50	192	0
BRK	50	288	0
STR	51	0	0
SI_	51	0	0	96	48	4
TAP	51	96	5
STR	51	192	7
SI_	51	192	7	96	48	3
TAP	51	288	2
STR	52	0	0
SI_	52	0	0	96	48	4
TAP	52	96	5
STR	52	192	7
SI_	52	192	7	96	48	3
TAP	52	288	2
STR	53	0	0
SUR	53	0	0	96	48	4
TAP	53	96	6
STR	53	192	7
SUL	53	192	7	96	48	3
TAP	53	288	1
BRK	54	0	0
BRK	54	0	1
BRK	54	96	0
BRK	54	96	1
BRK	54	192	0
BRK	54	192	1
BRK	54	288	0
BRK	54	288	1
TAP	55	0	0
STR	55	0	1
SI_	55	0	1	96	48	4
TAP	55	96	5
STR	55	192	6
SI_	55	192	6	96	48	3
TAP	55	192	7
TAP	55	288	2
TAP	56	0	0
STR	56	0	1
SI_	56	0	1	96	48	4
TAP	56	96	5
STR	56	192	6
SI_	56	192	6	96	48	3
TAP	56	192	7
TAP	56	288	2
STR	57	0	0
SI_	57	0	0	96	48	5
TAP	57	0	1
TAP	57	96	4
TAP	57	192	6
STR	57	192	7
SI_	57	192	7	96	48	2
TAP	57	288	3
BRK	58	0	0
BRK	58	0	1
BRK	58	96	0
BRK	58	96	1
BRK	58	192	0
BRK	58	192	1
BRK	58	288	0
BRK	58	288	1
STR	59	0	7
SCR	59	0	7	96	480	6
TAP	60	288	0
TAP	60	312	7
TAP	60	336	0
TAP	60	360	7

T_REC_TAP	237
T_REC_BRK	35
T_REC_XTP	0
T_REC_HLD	18
T_REC_XHO	0
T_REC_STR	26
T_REC_BST	0
T_REC_XST	0
T_REC_TTP	0
T_REC_THO	0
T_REC_SLD	26
T_REC_ALL	342
T_NUM_TAP	263
T_NUM_BRK	35
T_NUM_HLD	18
T_NUM_SLD	26
T_NUM_ALL	342
T_JUDGE_TAP	298
T_JUDGE_HLD	88
T_JUDGE_SLD	26
T_JUDGE_ALL	412
TTM_EACHPAIRS	77
TTM_SCR_TAP	131500
TTM_SCR_BRK	91000
TTM_SCR_HLD	18000
TTM_SCR_SLD	39000
TTM_SCR_ALL	279500
TTM_SCR_S	267750
TTM_SCR_SS	276000
TTM_RAT_ACV	10126

