VERSION	0.00.00	1.03.00
FES_MODE	0
BPM_DEF	134.000	134.000	134.000	134.000
MET_DEF	4	4
RESOLUTION	384
CLK_DEF	384
COMPATIBLE_CODE	MA2

BPM	0	0	134.000
MET	0	0	4	4

HLD	1	0	0	288
HLD	2	0	7	288
HLD	3	0	1	288
HLD	4	0	6	288
TAP	5	0	2
TAP	5	96	2
TAP	5	192	2
TAP	5	288	2
TAP	6	0	5
TAP	6	96	5
TAP	6	192	5
TAP	6	288	5
TAP	7	0	3
TAP	7	96	3
TAP	7	192	3
TAP	7	288	3
BRK	8	0	4
BRK	8	96	4
BRK	8	192	4
BRK	8	288	4
TAP	9	0	0
TAP	9	96	0
TAP	9	192	2
TAP	9	288	2
TAP	10	0	4
TAP	10	96	4
TAP	10	192	6
TAP	10	288	6
TAP	11	0	7
TAP	11	96	7
TAP	11	192	0
TAP	11	288	0
TAP	12	0	0
TAP	12	0	7
TAP	12	96	0
TAP	12	96	7
TAP	12	192	0
TAP	12	192	7
BRK	12	288	0
BRK	12	288	7
STR	13	0	0
SI_	13	0	0	96	96	3
STR	13	192	7
SI_	13	192	7	96	96	4
STR	14	0	1
SI_	14	0	1	96	96	4
STR	14	192	6
SI_	14	192	6	96	96	3
TAP	15	0	0
TAP	15	96	0
HLD	15	192	1	96
TAP	15	288	2
TAP	16	0	7
TAP	16	96	7
HLD	16	192	6	96
TAP	16	288	5
STR	17	0	6
SI_	17	0	6	96	96	1
STR	17	192	2
SI_	17	192	2	96	96	5
TAP	18	0	6
TAP	18	96	1
BRK	18	192	0
BRK	18	192	7
TAP	19	0	0
TAP	19	96	1
TAP	19	192	2
BRK	19	288	0
TAP	20	0	7
TAP	20	96	6
BRK	20	192	5
TAP	21	0	1
BRK	21	96	0
BRK	21	96	1
TAP	21	192	7
BRK	21	288	6
BRK	21	288	7
TAP	22	0	3
TAP	22	0	4
STR	22	96	3
SI_	22	96	3	96	96	0
STR	22	96	4
SI_	22	96	4	96	96	7
TAP	23	0	0
TAP	23	96	0
TAP	23	192	4
TAP	23	288	4
TAP	24	0	2
TAP	24	96	2
TAP	24	192	6
TAP	24	288	6
TAP	25	0	2
TAP	25	0	3
TAP	25	96	2
TAP	25	96	3
TAP	25	192	4
TAP	25	192	5
TAP	25	288	4
TAP	25	288	5
TAP	26	0	0
TAP	26	96	7
TAP	26	192	0
BRK	26	288	1
BRK	26	288	6
TAP	27	0	3
TAP	27	96	4
TAP	27	192	3
TAP	27	288	2
TAP	27	288	5
HLD	28	0	2	96
TAP	28	96	3
STR	28	192	4
SI_	28	192	4	96	96	6
STR	29	0	1
SI_	29	0	1	96	96	4
STR	29	192	6
SI_	29	192	6	96	96	3
TAP	30	0	2
TAP	30	96	3
STR	30	192	4
SI_	30	192	4	96	96	7
STR	31	0	1
SUR	31	0	1	96	480	4
BRK	32	288	5
STR	33	0	7
SV_	33	0	7	96	192	5
STR	34	0	3
SV_	34	0	3	96	192	1
STR	35	0	0
SI_	35	0	0	96	192	2
STR	35	0	4
SI_	35	0	4	96	192	6
TAP	36	0	0
TAP	36	96	0
TAP	36	192	0
TAP	36	288	0
STR	37	0	0
SSL	37	0	0	96	192	4
STR	38	0	7
SSR	38	0	7	96	192	3
STR	39	0	1
SSR	39	0	1	96	192	5
TAP	40	0	7
TAP	40	96	7
TAP	40	192	7
TAP	40	288	7
HLD	41	0	0	672
HLD	42	0	7	288
TAP	43	0	0
TAP	43	96	0
TAP	43	192	1
TAP	43	288	1
TAP	44	0	7
TAP	44	96	7
TAP	44	192	6
TAP	44	288	6
TAP	45	0	0
TAP	45	96	7
TAP	45	192	1
TAP	45	288	6
BRK	46	0	0
BRK	46	96	2
BRK	46	192	4
BRK	46	288	6
TAP	47	0	7
TAP	47	96	6
TAP	47	192	5
TAP	47	288	4
TAP	48	0	0
TAP	48	96	1
TAP	48	192	2
TAP	48	288	3
TAP	49	0	7
TAP	49	96	0
TAP	49	192	6
TAP	49	288	1
BRK	50	0	7
BRK	50	96	5
BRK	50	192	3
BRK	50	288	1
TAP	51	0	0
TAP	51	0	1
TAP	51	96	0
TAP	51	96	1
TAP	51	192	0
TAP	51	192	1
TAP	51	288	0
TAP	51	288	1
TAP	52	0	6
TAP	52	0	7
TAP	52	96	6
TAP	52	96	7
TAP	52	192	6
TAP	52	192	7
TAP	52	288	6
TAP	52	288	7
TAP	53	0	0
TAP	53	0	1
TAP	53	96	0
TAP	53	96	1
TAP	53	192	6
TAP	53	192	7
TAP	53	288	6
TAP	53	288	7
BRK	54	0	2
BRK	54	0	3
BRK	54	96	4
BRK	54	96	5
BRK	54	192	2
BRK	54	192	3
BRK	54	288	4
BRK	54	288	5
TAP	55	0	0
TAP	55	0	7
TAP	55	96	1
TAP	55	96	6
TAP	55	192	2
TAP	55	192	5
TAP	55	288	3
TAP	55	288	4
TAP	56	0	2
TAP	56	0	3
TAP	56	96	1
TAP	56	96	4
TAP	56	192	0
TAP	56	192	5
TAP	56	288	6
TAP	56	288	7
TAP	57	0	0
TAP	57	0	1
TAP	57	96	2
TAP	57	96	7
TAP	57	192	3
TAP	57	192	6
TAP	57	288	4
TAP	57	288	5
BRK	58	0	4
BRK	58	0	5
BRK	58	96	6
BRK	58	96	7
BRK	58	192	0
BRK	58	192	1
BRK	58	288	2
BRK	58	288	3
STR	59	0	1
SI_	59	0	1	96	96	4
STR	59	192	6
SI_	59	192	6	96	96	3
STR	60	0	0
SI_	60	0	0	96	96	5
STR	60	192	7
SI_	60	192	7	96	96	2

T_REC_TAP	154
T_REC_BRK	41
T_REC_XTP	0
T_REC_HLD	9
T_REC_XHO	0
T_REC_STR	24
T_REC_BST	0
T_REC_XST	0
T_REC_TTP	0
T_REC_THO	0
T_REC_SLD	24
T_REC_ALL	252
T_NUM_TAP	178
T_NUM_BRK	41
T_NUM_HLD	9
T_NUM_SLD	24
T_NUM_ALL	252
T_JUDGE_TAP	219
T_JUDGE_HLD	50
T_JUDGE_SLD	24
T_JUDGE_ALL	293
TTM_EACHPAIRS	48
TTM_SCR_TAP	89000
TTM_SCR_BRK	106600
TTM_SCR_HLD	9000
TTM_SCR_SLD	36000
TTM_SCR_ALL	240600
TTM_SCR_S	229450
TTM_SCR_SS	236500
TTM_RAT_ACV	10173

