VERSION	0.00.00	1.03.00
FES_MODE	0
BPM_DEF	134.000	134.000	134.000	134.000
MET_DEF	4	4
RESOLUTION	384
CLK_DEF	384
COMPATIBLE_CODE	MA2

BPM	0	0	134.000
MET	0	0	4	4

TAP	5	0	7
TAP	5	192	7
TAP	6	0	0
TAP	6	192	0
TAP	7	0	7
TAP	7	192	7
TAP	8	0	0
TAP	8	96	0
TAP	8	192	0
BRK	8	288	0
TAP	9	0	7
TAP	9	192	7
TAP	10	0	0
TAP	10	192	0
TAP	11	0	7
TAP	11	192	7
TAP	12	0	0
TAP	12	96	0
TAP	12	192	0
BRK	12	288	0
STR	13	0	0
SI_	13	0	0	96	288	4
TAP	15	0	5
TAP	15	96	5
TAP	15	192	5
TAP	16	0	4
TAP	16	96	4
TAP	16	192	4
TAP	17	0	2
TAP	17	0	3
TAP	17	192	2
TAP	17	192	3
TAP	18	0	0
TAP	18	0	1
TAP	18	192	0
TAP	18	192	1
TAP	19	0	2
TAP	19	96	2
TAP	19	192	2
TAP	20	0	3
TAP	20	96	3
TAP	20	192	3
TAP	21	0	4
TAP	21	0	5
TAP	21	192	4
TAP	21	192	5
TAP	22	0	6
TAP	22	0	7
TAP	22	192	6
TAP	22	192	7
TAP	23	0	5
TAP	23	96	5
TAP	23	192	4
TAP	23	192	5
TAP	24	0	2
TAP	24	96	2
TAP	24	192	2
TAP	24	192	3
TAP	25	0	4
TAP	25	0	5
TAP	25	192	2
TAP	25	192	3
TAP	26	0	4
TAP	26	96	4
TAP	26	192	2
TAP	26	192	3
TAP	27	0	1
TAP	27	96	1
TAP	27	192	0
TAP	27	192	1
TAP	28	0	6
TAP	28	96	6
TAP	28	192	6
TAP	28	192	7
TAP	29	0	0
TAP	29	0	1
TAP	29	192	6
TAP	29	192	7
TAP	30	0	0
TAP	30	96	0
TAP	30	192	6
TAP	30	192	7
HLD	31	0	1	576
HLD	31	0	6	576
TAP	33	0	0
TAP	33	192	1
TAP	34	0	2
TAP	34	192	3
TAP	34	192	4
TAP	35	0	5
TAP	35	192	6
TAP	36	0	7
TAP	36	192	7
TAP	37	0	7
TAP	37	192	6
TAP	38	0	5
TAP	38	192	3
TAP	38	192	4
TAP	39	0	2
TAP	39	192	1
TAP	40	0	0
TAP	40	192	0
STR	41	0	0
SI_	41	0	0	96	288	4
TAP	43	0	7
TAP	43	96	7
TAP	43	192	0
TAP	43	288	0
TAP	44	0	7
TAP	44	96	7
TAP	44	192	0
TAP	44	288	0
TAP	45	0	7
TAP	45	96	7
TAP	45	192	0
TAP	45	288	0
TAP	46	0	7
TAP	46	96	7
TAP	46	192	7
BRK	46	288	7
TAP	47	0	0
TAP	47	96	0
TAP	47	192	7
TAP	47	288	7
TAP	48	0	0
TAP	48	96	0
TAP	48	192	7
TAP	48	288	7
TAP	49	0	0
TAP	49	96	0
TAP	49	192	7
TAP	49	288	7
TAP	50	0	0
TAP	50	96	0
TAP	50	192	0
BRK	50	288	0
TAP	51	0	1
TAP	51	96	1
TAP	51	192	2
TAP	51	288	2
TAP	52	0	3
TAP	52	96	3
TAP	52	192	4
TAP	52	288	4
TAP	53	0	5
TAP	53	96	5
TAP	53	192	6
TAP	53	288	6
TAP	54	0	0
TAP	54	0	7
TAP	54	96	0
TAP	54	96	7
TAP	54	192	0
TAP	54	192	7
BRK	54	288	0
BRK	54	288	7
TAP	55	0	6
TAP	55	96	6
TAP	55	192	5
TAP	55	288	5
TAP	56	0	4
TAP	56	96	4
TAP	56	192	3
TAP	56	288	3
TAP	57	0	2
TAP	57	96	2
TAP	57	192	1
TAP	57	288	1
TAP	58	0	0
TAP	58	0	7
TAP	58	96	0
TAP	58	96	7
TAP	58	192	0
TAP	58	192	7
BRK	58	288	0
BRK	58	288	7
HLD	59	0	0	744
HLD	60	0	7	360

T_REC_TAP	162
T_REC_BRK	8
T_REC_XTP	0
T_REC_HLD	4
T_REC_XHO	0
T_REC_STR	2
T_REC_BST	0
T_REC_XST	0
T_REC_TTP	0
T_REC_THO	0
T_REC_SLD	2
T_REC_ALL	178
T_NUM_TAP	164
T_NUM_BRK	8
T_NUM_HLD	4
T_NUM_SLD	2
T_NUM_ALL	178
T_JUDGE_TAP	172
T_JUDGE_HLD	48
T_JUDGE_SLD	2
T_JUDGE_ALL	222
TTM_EACHPAIRS	29
TTM_SCR_TAP	82000
TTM_SCR_BRK	20800
TTM_SCR_HLD	4000
TTM_SCR_SLD	3000
TTM_SCR_ALL	109800
TTM_SCR_S	105750
TTM_SCR_SS	109000
TTM_RAT_ACV	10073

