VERSION	0.00.00	1.03.00
FES_MODE	0
BPM_DEF	142.000	142.000	142.000	142.000
MET_DEF	4	4
RESOLUTION	384
CLK_DEF	384
COMPATIBLE_CODE	MA2

BPM	0	0	142.000
MET	0	0	4	4

TAP	2	144	0
TAP	2	168	7
BRK	2	288	0
HLD	3	0	0	144
TAP	3	72	1
TAP	3	144	7
HLD	3	192	7	144
TAP	3	264	6
TAP	3	336	0
TAP	4	48	6
TAP	4	96	7
TAP	4	144	1
TAP	4	168	0
TAP	4	216	2
TAP	4	264	4
TAP	4	288	3
TAP	4	336	5
HLD	5	0	3	144
TAP	5	72	2
TAP	5	144	4
HLD	5	192	4	144
TAP	5	264	5
TAP	5	336	3
TAP	6	48	1
TAP	6	96	0
TAP	6	144	6
TAP	6	168	7
TAP	6	216	5
TAP	6	264	3
TAP	6	288	4
TAP	6	336	2
HLD	7	0	6	144
TAP	7	72	5
HLD	7	144	4	192
TAP	7	192	0
TAP	7	264	7
TAP	7	336	6
TAP	8	48	2
TAP	8	96	6
TAP	8	144	4
TAP	8	168	5
STR	8	216	0
SI_	8	216	0	96	24	4
TAP	8	264	0
HLD	9	0	1	144
TAP	9	72	2
HLD	9	144	3	192
TAP	9	192	6
TAP	9	264	7
TAP	9	336	0
TAP	10	0	2
TAP	10	0	3
TAP	10	72	4
TAP	10	72	5
STR	10	144	0
SV_	10	144	0	96	72	5
STR	10	144	7
SV_	10	144	7	96	72	2
TAP	11	0	2
TAP	11	0	3
TAP	11	48	2
TAP	11	48	3
TAP	11	72	1
TAP	11	72	4
TAP	11	144	4
TAP	11	144	5
TAP	11	192	4
TAP	11	192	5
TAP	11	216	3
TAP	11	216	6
TAP	11	288	0
TAP	11	288	7
TAP	11	336	0
TAP	11	336	7
TAP	11	360	0
TAP	11	360	7
TAP	12	0	2
TAP	12	96	3
TAP	12	192	4
TAP	12	288	5
STR	13	0	0
SUR	13	0	0	96	48	6
STR	13	192	6
SUR	13	192	6	96	48	4
TAP	14	0	6
TAP	14	96	7
TAP	14	192	0
TAP	14	288	1
STR	15	0	4
SUR	15	0	4	96	48	2
STR	15	192	2
SUR	15	192	2	96	48	0
TAP	16	0	0
TAP	16	72	7
HLD	16	144	6	120
TAP	16	192	0
TAP	16	264	1
STR	17	0	0
SUR	17	0	0	96	96	6
STR	17	96	6
SUR	17	96	6	96	96	4
STR	17	192	4
SUR	17	192	4	96	96	2
TAP	18	0	4
TAP	18	72	3
HLD	18	144	2	120
TAP	18	192	4
TAP	18	264	5
TAP	19	0	2
TAP	19	0	6
TAP	19	72	3
TAP	19	72	7
TAP	19	144	0
TAP	19	144	4
TAP	19	216	1
TAP	19	216	5
TAP	19	288	1
TAP	19	312	0
TAP	19	336	7
TAP	19	360	6
TAP	20	0	2
TAP	20	32	3
TAP	20	64	2
TAP	20	96	5
TAP	20	128	4
TAP	20	160	5
TAP	20	192	0
TAP	20	224	5
TAP	20	256	2
BRK	20	288	7
TAP	21	0	0
TAP	21	48	5
TAP	21	72	4
TAP	21	96	5
TAP	21	144	2
TAP	21	168	3
TAP	21	192	2
TAP	21	240	6
TAP	21	264	5
TAP	21	288	6
TAP	21	336	1
TAP	21	360	2
TAP	22	0	1
TAP	22	48	6
TAP	22	72	7
TAP	22	96	6
TAP	22	144	1
TAP	22	168	0
TAP	22	192	1
TAP	22	336	6
TAP	22	336	7
TAP	23	0	0
TAP	23	0	1
TAP	23	72	2
TAP	23	72	3
TAP	23	120	4
TAP	23	120	5
TAP	23	192	2
TAP	23	192	3
TAP	23	264	0
TAP	23	264	1
TAP	23	312	4
TAP	23	312	5
TAP	24	0	6
TAP	24	0	7
BRK	24	72	0
BRK	24	72	1
TAP	24	240	1
TAP	24	288	3
TAP	24	336	5
TAP	25	0	7
TAP	25	48	2
TAP	25	72	3
TAP	25	96	1
TAP	25	144	5
TAP	25	168	4
TAP	25	192	6
TAP	25	240	1
TAP	25	264	3
TAP	25	288	2
TAP	25	336	6
TAP	25	360	4
TAP	26	0	5
TAP	26	48	0
TAP	26	72	7
TAP	26	96	6
TAP	26	144	7
TAP	26	168	0
TAP	26	192	1
TAP	26	288	0
STR	27	0	0
SSL	27	0	0	96	48	4
STR	27	0	7
SCL	27	0	7	96	48	4
STR	27	192	0
SCR	27	192	0	96	48	3
STR	27	192	7
SSR	27	192	7	96	48	3
BRK	28	0	0
BRK	28	0	7
BRK	28	96	2
BRK	28	96	3
TAP	28	192	5
TAP	28	216	4
TAP	28	240	5
TAP	28	264	4
TAP	28	288	6
TAP	28	312	3
TAP	28	336	5
TAP	28	360	4
TAP	29	0	7
TAP	29	48	1
TAP	29	72	4
TAP	29	96	1
TAP	29	144	6
TAP	29	168	3
TAP	29	192	6
TAP	29	240	0
TAP	29	264	3
TAP	29	288	0
TAP	29	336	7
TAP	29	360	4
TAP	30	0	7
TAP	30	48	3
TAP	30	72	5
TAP	30	96	1
TAP	30	144	4
TAP	30	168	2
TAP	30	192	6
TAP	30	336	4
TAP	30	336	5
TAP	31	0	0
TAP	31	0	1
TAP	31	72	2
TAP	31	72	3
TAP	31	120	6
TAP	31	120	7
TAP	31	192	2
TAP	31	192	3
TAP	31	264	4
TAP	31	264	5
TAP	31	312	0
TAP	31	312	1
TAP	32	0	3
TAP	32	0	6
BRK	32	72	4
BRK	32	72	5
TAP	32	240	4
TAP	32	288	2
TAP	32	336	6
TAP	33	0	0
TAP	33	48	3
TAP	33	72	4
TAP	33	96	3
TAP	33	144	6
TAP	33	168	7
TAP	33	192	6
TAP	33	240	1
TAP	33	264	0
TAP	33	288	1
HLD	34	0	7	96
HLD	34	96	6	96
HLD	34	192	5	96
STR	34	288	4
SI_	34	288	4	96	48	0
STR	35	0	3
SI_	35	0	3	96	48	7
STR	35	96	1
SI_	35	96	1	96	48	4
STR	35	192	6
SI_	35	192	6	96	48	3
TAP	36	0	2
TAP	36	32	3
TAP	36	64	2
TAP	36	96	5
TAP	36	128	4
TAP	36	160	5
TAP	36	192	1
TAP	36	240	6
BRK	36	288	0
BRK	36	312	7
HLD	37	0	0	96
TAP	37	48	1
HLD	37	96	7	96
TAP	37	144	6
HLD	37	192	0	96
TAP	37	240	1
HLD	37	288	7	96
TAP	37	336	6
HLD	38	0	0	72
BRK	38	72	7
TAP	38	240	6
TAP	38	264	7
TAP	38	288	0
TAP	38	312	1
STR	38	360	4
SUL	38	360	4	96	120	2
TAP	39	24	3
TAP	39	240	1
TAP	39	264	0
TAP	39	288	7
TAP	39	312	6
STR	39	360	7
SUR	39	360	7	96	120	1
TAP	40	24	0
TAP	40	240	0
TAP	40	264	7
TAP	40	288	2
TAP	40	312	5
HLD	41	0	3	96
TAP	41	48	2
HLD	41	96	4	96
TAP	41	144	5
HLD	41	192	3	96
TAP	41	240	2
HLD	41	288	4	96
TAP	41	336	5
HLD	42	0	3	72
BRK	42	72	4
TAP	42	240	4
TAP	42	264	3
TAP	42	288	4
TAP	42	312	3
TAP	42	360	4
TAP	43	0	1
TAP	43	24	0
TAP	43	72	2
TAP	43	96	6
TAP	43	120	7
TAP	43	168	5
TAP	43	192	0
TAP	43	216	7
TAP	43	264	1
TAP	43	264	6
TAP	43	288	1
TAP	43	288	6
TAP	43	336	3
TAP	43	336	4
TAP	44	0	0
TAP	44	24	7
TAP	44	48	1
TAP	44	72	6
TAP	44	96	0
TAP	44	120	7
TAP	44	144	1
TAP	44	168	6
TAP	44	192	3
TAP	44	216	5
TAP	44	240	2
TAP	44	264	4
TAP	44	288	3
TAP	44	312	4
BRK	44	336	2
HLD	45	0	1	48
TAP	45	48	2
HLD	45	96	1	48
TAP	45	144	0
HLD	45	192	1	48
TAP	45	240	2
HLD	45	288	1	48
TAP	45	336	0
HLD	46	0	1	72
BRK	46	72	7
TAP	46	240	1
TAP	46	264	2
TAP	46	288	3
TAP	46	312	4
STR	46	360	6
SUL	46	360	6	96	120	4
TAP	47	24	5
TAP	47	240	4
TAP	47	264	5
TAP	47	288	6
TAP	47	312	7
STR	47	360	2
SUL	47	360	2	96	120	4
TAP	48	24	3
TAP	48	240	4
TAP	48	264	3
TAP	48	288	4
TAP	48	312	3
HLD	49	0	6	48
TAP	49	48	5
HLD	49	96	6	48
TAP	49	144	7
HLD	49	192	6	48
TAP	49	240	5
HLD	49	288	6	48
TAP	49	336	7
HLD	50	0	6	72
BRK	50	72	0
TAP	50	240	6
TAP	50	264	3
TAP	50	288	4
TAP	50	312	1
TAP	50	360	7
TAP	51	0	0
TAP	51	24	0
TAP	51	72	0
TAP	51	96	2
TAP	51	120	2
TAP	51	168	2
TAP	51	192	4
TAP	51	216	4
TAP	51	264	4
TAP	51	288	6
TAP	51	336	6
TAP	52	0	1
TAP	52	24	1
TAP	52	72	1
TAP	52	96	7
TAP	52	120	7
TAP	52	168	7
TAP	52	192	5
TAP	52	216	5
TAP	52	264	5
BRK	52	288	3
STR	53	0	0
SCL	53	0	0	96	48	5
TAP	53	48	1
TAP	53	96	1
TAP	53	144	2
TAP	53	168	2
TAP	53	216	5
TAP	53	264	3
TAP	53	288	4
STR	54	0	7
SCR	54	0	7	96	48	2
TAP	54	48	6
TAP	54	96	6
TAP	54	144	5
TAP	54	168	5
TAP	54	216	2
TAP	54	264	4
TAP	54	288	3
STR	55	0	0
SCL	55	0	0	96	48	5
TAP	55	48	1
TAP	55	96	2
TAP	55	144	1
TAP	55	168	1
TAP	55	216	6
TAP	55	264	0
TAP	55	288	7
STR	56	0	7
SCR	56	0	7	96	48	2
TAP	56	48	6
TAP	56	96	5
TAP	56	144	4
TAP	56	192	2
TAP	56	216	3
TAP	56	240	1
TAP	56	264	4
TAP	56	288	0
TAP	56	312	5
TAP	56	336	6
BRK	56	360	7
STR	57	0	6
SI_	57	0	6	96	48	3
TAP	57	48	3
TAP	57	96	6
TAP	57	144	1
TAP	57	168	1
TAP	57	216	3
TAP	57	264	7
TAP	57	288	7
TAP	57	336	1
STR	58	0	1
SI_	58	0	1	96	48	4
TAP	58	48	4
TAP	58	96	1
TAP	58	144	6
TAP	58	168	6
TAP	58	216	4
TAP	58	264	0
TAP	58	288	0
TAP	58	336	5
STR	59	0	5
SCR	59	0	5	96	48	0
TAP	59	48	0
TAP	59	96	5
TAP	59	144	2
TAP	59	168	2
TAP	59	216	5
TAP	59	264	3
TAP	59	288	4
TAP	59	336	2
STR	60	0	2
SCL	60	0	2	96	48	7
TAP	60	48	7
TAP	60	96	2
TAP	60	144	5
TAP	60	192	3
TAP	60	216	4
TAP	60	240	2
TAP	60	264	5
TAP	60	288	1
TAP	60	312	6
TAP	60	336	0
TAP	60	360	7
TAP	61	0	0
TAP	61	32	2
TAP	61	64	4
TAP	61	96	6
TAP	61	128	1
TAP	61	160	3
TAP	61	192	5
TAP	61	224	7
TAP	61	256	0
BRK	61	288	7
STR	62	0	7
SUL	62	0	7	96	96	1
STR	62	96	1
SUL	62	96	1	96	96	3
STR	62	192	3
SUL	62	192	3	96	96	5
HLD	63	0	7	72
BRK	63	72	6
HLD	63	192	7	72
BRK	63	264	0
STR	64	0	0
SUL	64	0	0	96	96	2
STR	64	96	2
SUL	64	96	2	96	96	4
STR	64	192	4
SUL	64	192	4	96	96	6
HLD	65	0	0	72
BRK	65	72	7
BRK	65	192	1
TAP	65	216	1
TAP	65	240	1
TAP	65	264	1
BRK	65	288	6
TAP	65	312	6
TAP	65	336	6
TAP	65	360	6
STR	66	0	0
SI_	66	0	0	96	96	5
STR	66	96	5
SI_	66	96	5	96	96	1
STR	66	192	1
SUL	66	192	1	96	96	6
HLD	67	0	5	72
BRK	67	72	6
HLD	67	192	5	72
BRK	67	264	4
STR	68	0	7
SI_	68	0	7	96	96	2
STR	68	96	2
SI_	68	96	2	96	96	5
STR	68	192	5
SCR	68	192	5	96	48	2
TAP	69	0	0
TAP	69	0	1
TAP	69	72	4
TAP	69	72	5
TAP	69	144	0
TAP	69	144	1
TAP	69	216	6
TAP	69	216	7
BRK	69	288	2
BRK	69	288	3
TAP	70	0	2
TAP	70	0	3
TAP	70	48	1
TAP	70	48	4
TAP	70	72	1
TAP	70	72	4
TAP	70	144	6
TAP	70	144	7
TAP	70	192	0
TAP	70	192	5
TAP	70	216	0
TAP	70	216	5
BRK	70	288	2
BRK	70	288	6
TAP	71	0	0
TAP	71	0	4
TAP	71	48	0
TAP	71	48	4
TAP	71	72	1
TAP	71	72	5
STR	71	96	2
SUL	71	96	2	96	192	5
STR	71	96	6
SUL	71	96	6	96	192	1

T_REC_TAP	429
T_REC_BRK	31
T_REC_XTP	0
T_REC_HLD	38
T_REC_XHO	0
T_REC_STR	44
T_REC_BST	0
T_REC_XST	0
T_REC_TTP	0
T_REC_THO	0
T_REC_SLD	44
T_REC_ALL	586
T_NUM_TAP	473
T_NUM_BRK	31
T_NUM_HLD	38
T_NUM_SLD	44
T_NUM_ALL	586
T_JUDGE_TAP	504
T_JUDGE_HLD	80
T_JUDGE_SLD	44
T_JUDGE_ALL	628
TTM_EACHPAIRS	57
TTM_SCR_TAP	236500
TTM_SCR_BRK	80600
TTM_SCR_HLD	38000
TTM_SCR_SLD	66000
TTM_SCR_ALL	421100
TTM_SCR_S	405500
TTM_SCR_SS	418000
TTM_RAT_ACV	10074

