VERSION	0.00.00	1.03.00
FES_MODE	0
BPM_DEF	142.000	142.000	142.000	142.000
MET_DEF	4	4
RESOLUTION	384
CLK_DEF	384
COMPATIBLE_CODE	MA2

BPM	0	0	142.000
MET	0	0	4	4

TAP	3	0	0
TAP	3	96	1
TAP	3	192	2
TAP	3	288	3
TAP	3	288	4
TAP	4	0	7
TAP	4	96	6
TAP	4	192	5
TAP	4	288	3
TAP	4	288	4
TAP	5	0	1
TAP	5	96	2
TAP	5	192	3
TAP	5	288	4
TAP	5	288	5
TAP	6	0	6
TAP	6	96	5
TAP	6	192	4
TAP	6	288	2
TAP	6	288	3
TAP	7	0	4
TAP	7	96	4
TAP	7	96	5
TAP	7	192	3
TAP	7	288	2
TAP	7	288	3
TAP	8	0	6
TAP	8	96	6
TAP	8	96	7
TAP	8	192	1
TAP	8	288	0
TAP	8	288	1
TAP	9	0	6
TAP	9	96	0
TAP	9	96	5
TAP	9	192	1
TAP	9	288	2
TAP	9	288	7
TAP	10	0	2
TAP	10	0	5
TAP	10	72	3
TAP	10	72	4
BRK	10	144	1
BRK	10	144	6
TAP	11	0	0
TAP	11	0	1
TAP	11	48	0
TAP	11	48	1
TAP	11	144	6
TAP	11	144	7
TAP	11	192	6
TAP	11	192	7
BRK	11	288	0
BRK	11	288	7
BRK	11	336	0
BRK	11	336	7
HLD	12	0	1	96
TAP	12	96	4
HLD	12	192	6	96
TAP	12	288	3
HLD	13	0	0	48
HLD	13	0	1	48
HLD	13	96	0	48
HLD	13	96	1	48
HLD	14	0	6	96
TAP	14	96	3
HLD	14	192	1	96
TAP	14	288	4
HLD	15	0	6	48
HLD	15	0	7	48
HLD	15	96	6	48
HLD	15	96	7	48
HLD	16	0	2	96
TAP	16	96	7
HLD	16	192	5	96
TAP	16	288	0
HLD	17	0	0	48
HLD	17	0	7	48
HLD	17	96	0	48
HLD	17	96	7	48
HLD	18	0	5	96
TAP	18	96	0
HLD	18	192	2	96
TAP	18	288	7
TAP	19	0	6
TAP	19	0	7
TAP	19	72	0
TAP	19	72	7
TAP	19	144	0
TAP	19	144	1
TAP	19	216	0
TAP	19	216	7
TAP	19	288	6
TAP	19	288	7
TAP	19	336	0
TAP	19	336	5
STR	20	0	1
SUR	20	0	1	96	192	4
BRK	20	288	5
TAP	21	0	3
TAP	21	0	6
TAP	21	48	5
TAP	21	96	4
TAP	21	192	1
TAP	21	192	4
TAP	21	240	2
TAP	21	288	3
TAP	22	0	2
TAP	22	0	5
TAP	22	48	4
TAP	22	96	3
STR	22	192	6
SV_	22	192	6	96	48	3
TAP	22	336	0
TAP	23	0	3
TAP	23	72	1
TAP	23	72	2
TAP	23	144	7
TAP	23	192	4
TAP	23	264	5
TAP	23	264	6
TAP	23	336	1
TAP	24	0	6
TAP	24	72	0
TAP	24	72	7
TAP	24	240	6
STR	24	288	7
SI_	24	288	7	96	72	3
TAP	24	336	0
TAP	25	0	1
TAP	25	240	2
TAP	25	288	3
TAP	25	336	4
TAP	26	0	5
TAP	26	96	4
TAP	26	96	5
TAP	26	192	3
TAP	26	192	6
TAP	26	288	2
TAP	26	288	7
HLD	27	0	0	96
HLD	27	0	1	96
TAP	27	144	0
TAP	27	144	7
HLD	27	192	6	96
HLD	27	192	7	96
TAP	27	336	0
TAP	27	336	7
TAP	28	0	0
TAP	28	0	1
TAP	28	96	6
TAP	28	96	7
TAP	28	192	0
TAP	28	192	7
TAP	28	240	1
TAP	28	240	6
TAP	28	288	2
TAP	28	288	5
TAP	29	0	1
TAP	29	0	4
TAP	29	48	2
TAP	29	96	3
TAP	29	192	3
TAP	29	192	6
TAP	29	240	5
TAP	29	288	4
TAP	30	0	2
TAP	30	0	5
TAP	30	48	3
TAP	30	96	4
STR	30	192	1
SV_	30	192	1	96	48	4
TAP	30	336	7
TAP	31	0	4
TAP	31	72	5
TAP	31	72	6
TAP	31	144	0
TAP	31	192	3
TAP	31	264	1
TAP	31	264	2
TAP	31	336	6
TAP	32	0	1
TAP	32	72	0
TAP	32	72	7
TAP	32	240	1
STR	32	288	0
SI_	32	288	0	96	72	4
TAP	32	336	7
TAP	33	0	6
TAP	33	240	6
TAP	33	288	7
TAP	33	336	0
TAP	34	0	1
TAP	34	96	0
TAP	34	96	1
TAP	34	192	2
TAP	34	192	7
TAP	34	288	3
TAP	34	288	6
HLD	35	0	4	96
HLD	35	0	5	96
TAP	35	144	3
TAP	35	144	4
HLD	35	192	2	96
HLD	35	192	3	96
TAP	35	336	3
TAP	35	336	4
TAP	36	0	4
TAP	36	0	5
TAP	36	96	2
TAP	36	96	3
TAP	36	192	1
TAP	36	192	6
TAP	36	240	1
TAP	36	240	6
BRK	36	288	0
BRK	36	288	7
TAP	37	0	1
TAP	37	48	3
TAP	37	96	4
TAP	37	144	6
TAP	37	192	2
TAP	37	240	0
TAP	37	288	7
TAP	37	336	5
HLD	38	0	0	72
TAP	38	72	7
TAP	38	240	2
TAP	38	240	3
TAP	38	288	1
TAP	38	288	4
TAP	38	360	6
TAP	38	360	7
STR	39	24	6
SI_	39	24	6	96	72	3
STR	39	24	7
SI_	39	24	7	96	72	2
TAP	39	240	4
TAP	39	240	5
TAP	39	288	3
TAP	39	288	6
TAP	39	360	0
TAP	39	360	1
STR	40	24	0
SI_	40	24	0	96	72	5
STR	40	24	1
SI_	40	24	1	96	72	4
TAP	41	0	6
TAP	41	48	4
TAP	41	96	3
TAP	41	144	1
TAP	41	192	5
TAP	41	240	7
TAP	41	288	0
TAP	41	336	2
HLD	42	0	7	72
TAP	42	72	0
TAP	42	240	0
TAP	42	288	1
TAP	42	288	7
STR	42	360	2
SUL	42	360	2	96	192	5
STR	42	360	6
SUL	42	360	6	96	192	1
STR	44	0	0
SSL	44	0	0	96	96	4
STR	44	192	7
SSR	44	192	7	96	96	3
TAP	45	0	1
TAP	45	48	3
TAP	45	96	4
TAP	45	144	6
TAP	45	192	2
TAP	45	240	0
TAP	45	288	7
TAP	45	336	5
HLD	46	0	0	72
TAP	46	72	7
TAP	46	240	2
TAP	46	240	3
TAP	46	288	1
TAP	46	288	4
TAP	46	360	6
TAP	46	360	7
STR	47	24	6
SI_	47	24	6	96	72	3
STR	47	24	7
SI_	47	24	7	96	72	2
TAP	47	240	4
TAP	47	240	5
TAP	47	288	3
TAP	47	288	6
TAP	47	360	0
TAP	47	360	1
STR	48	24	0
SI_	48	24	0	96	72	5
STR	48	24	1
SI_	48	24	1	96	72	4
TAP	49	0	6
TAP	49	48	4
TAP	49	96	3
TAP	49	144	1
TAP	49	192	5
TAP	49	240	7
TAP	49	288	0
TAP	49	336	2
HLD	50	0	7	72
TAP	50	72	0
TAP	50	240	7
TAP	50	288	0
TAP	50	288	6
STR	50	360	1
SUR	50	360	1	96	192	6
STR	50	360	5
SUR	50	360	5	96	192	2
STR	52	0	2
SUL	52	0	2	96	96	5
STR	52	192	6
SCR	52	192	6	96	96	1
TAP	53	0	3
TAP	53	48	4
TAP	53	96	2
TAP	53	96	5
TAP	53	168	1
TAP	53	216	6
TAP	53	288	0
TAP	53	288	7
TAP	54	0	3
TAP	54	48	2
TAP	54	96	1
TAP	54	96	4
TAP	54	168	5
TAP	54	216	0
TAP	54	288	6
TAP	54	288	7
TAP	55	0	4
TAP	55	48	5
TAP	55	96	3
TAP	55	96	6
TAP	55	168	2
TAP	55	216	7
TAP	55	288	0
TAP	55	288	1
TAP	56	0	0
TAP	56	0	7
TAP	56	48	0
TAP	56	48	7
TAP	56	96	1
TAP	56	96	6
TAP	56	192	1
TAP	56	240	1
TAP	56	240	7
TAP	56	288	6
TAP	56	336	0
TAP	56	336	6
TAP	57	0	0
TAP	57	48	7
TAP	57	96	1
TAP	57	96	6
TAP	57	168	2
TAP	57	216	5
TAP	57	288	3
TAP	57	288	4
TAP	58	0	0
TAP	58	48	1
TAP	58	96	2
TAP	58	96	7
TAP	58	168	6
TAP	58	216	3
TAP	58	288	4
TAP	58	288	5
TAP	59	0	7
TAP	59	48	6
TAP	59	96	0
TAP	59	96	5
TAP	59	168	1
TAP	59	216	4
TAP	59	288	2
TAP	59	288	3
TAP	60	0	3
TAP	60	0	4
TAP	60	48	3
TAP	60	48	4
TAP	60	96	2
TAP	60	96	5
TAP	60	192	2
TAP	60	240	2
TAP	60	240	4
TAP	60	288	5
TAP	60	336	3
TAP	60	336	5
STR	61	0	2
SUR	61	0	2	96	192	5
HLD	62	0	2	96
HLD	62	96	3	96
HLD	62	192	4	96
TAP	62	288	5
HLD	63	0	4	96
TAP	63	96	3
HLD	63	192	2	96
TAP	63	288	5
HLD	64	0	5	96
HLD	64	96	4	96
HLD	64	192	3	96
TAP	64	288	2
HLD	65	0	3	96
TAP	65	96	4
TAP	65	192	1
TAP	65	240	1
TAP	65	240	7
TAP	65	288	6
TAP	65	336	0
TAP	65	336	6
HLD	66	0	1	96
HLD	66	96	0	96
HLD	66	192	7	96
TAP	66	288	6
HLD	67	0	6	48
HLD	67	0	7	48
HLD	67	96	0	48
HLD	67	96	1	48
HLD	68	0	3	96
HLD	68	96	4	96
HLD	68	192	1	96
TAP	68	288	6
TAP	69	0	0
TAP	69	0	7
TAP	69	72	2
TAP	69	72	3
TAP	69	144	4
TAP	69	144	5
TAP	69	216	1
TAP	69	216	6
TAP	69	288	0
TAP	69	288	7
TAP	70	0	2
TAP	70	0	7
TAP	70	48	0
TAP	70	48	1
TAP	70	72	0
TAP	70	72	1
TAP	70	144	0
TAP	70	144	5
TAP	70	192	6
TAP	70	192	7
TAP	70	216	6
TAP	70	216	7
BRK	70	288	3
BRK	70	288	4
TAP	71	0	1
TAP	71	0	6
TAP	71	48	0
TAP	71	48	7
TAP	71	72	0
TAP	71	72	7

T_REC_TAP	349
T_REC_BRK	11
T_REC_XTP	0
T_REC_HLD	51
T_REC_XHO	0
T_REC_STR	22
T_REC_BST	0
T_REC_XST	0
T_REC_TTP	0
T_REC_THO	0
T_REC_SLD	22
T_REC_ALL	455
T_NUM_TAP	371
T_NUM_BRK	11
T_NUM_HLD	51
T_NUM_SLD	22
T_NUM_ALL	455
T_JUDGE_TAP	382
T_JUDGE_HLD	86
T_JUDGE_SLD	22
T_JUDGE_ALL	490
TTM_EACHPAIRS	128
TTM_SCR_TAP	185500
TTM_SCR_BRK	28600
TTM_SCR_HLD	51000
TTM_SCR_SLD	33000
TTM_SCR_ALL	298100
TTM_SCR_S	288100
TTM_SCR_SS	297000
TTM_RAT_ACV	10037

