VERSION	0.00.00	1.03.00
FES_MODE	0
BPM_DEF	142.000	142.000	142.000	142.000
MET_DEF	4	4
RESOLUTION	384
CLK_DEF	384
COMPATIBLE_CODE	MA2

BPM	0	0	142.000
MET	0	0	4	4

HLD	3	0	0	96
HLD	3	192	7	96
TAP	4	0	2
TAP	4	96	2
TAP	4	192	3
TAP	4	288	3
HLD	5	0	7	96
HLD	5	192	0	96
TAP	6	0	5
TAP	6	96	5
TAP	6	192	4
TAP	6	288	4
HLD	7	0	1	96
HLD	7	192	6	96
TAP	8	0	2
TAP	8	96	3
TAP	8	192	2
TAP	8	288	3
HLD	9	0	6	96
HLD	9	192	1	96
STR	10	0	6
SUR	10	0	6	96	192	4
STR	11	0	0
SI_	11	0	0	96	96	4
STR	11	192	6
SI_	11	192	6	96	96	2
TAP	12	0	0
TAP	12	96	0
HLD	12	192	1	96
TAP	13	0	7
TAP	13	96	7
HLD	13	192	6	96
TAP	14	0	2
TAP	14	96	2
HLD	14	192	3	96
TAP	15	0	5
TAP	15	96	5
HLD	15	192	4	96
TAP	16	0	1
TAP	16	96	1
TAP	16	192	0
TAP	16	192	1
TAP	17	0	6
TAP	17	96	6
TAP	17	192	6
TAP	17	192	7
TAP	18	0	0
TAP	18	96	7
TAP	18	192	1
TAP	18	192	6
HLD	19	0	0	288
HLD	19	0	7	288
STR	20	0	5
SCR	20	0	5	96	192	1
TAP	21	0	3
TAP	21	96	3
TAP	21	192	4
TAP	21	288	4
TAP	22	0	3
TAP	22	96	2
TAP	22	192	2
TAP	22	192	3
TAP	23	0	5
TAP	23	96	4
TAP	23	192	2
TAP	23	288	3
TAP	24	0	6
TAP	24	96	7
TAP	24	192	1
TAP	24	288	0
HLD	25	0	6	288
HLD	26	0	7	96
HLD	26	192	0	96
HLD	27	0	1	96
HLD	27	192	6	96
TAP	28	0	0
TAP	28	96	7
TAP	28	192	0
TAP	28	192	7
BRK	28	288	1
BRK	28	288	6
TAP	29	0	1
TAP	29	96	0
TAP	29	192	7
TAP	29	288	6
TAP	30	0	2
TAP	30	96	3
TAP	30	192	4
TAP	30	288	5
HLD	31	0	1	96
HLD	31	192	6	96
HLD	32	0	0	96
HLD	32	192	7	96
TAP	33	0	2
TAP	33	96	2
TAP	33	192	2
TAP	33	288	1
TAP	33	288	3
TAP	34	0	5
TAP	34	96	5
TAP	34	192	5
TAP	34	288	4
TAP	34	288	6
BRK	35	0	0
BRK	35	0	7
BRK	35	192	0
BRK	35	192	7
TAP	36	0	0
TAP	36	0	7
TAP	36	96	1
TAP	36	96	6
TAP	36	192	1
TAP	36	192	6
TAP	36	288	0
TAP	36	288	7
TAP	37	0	0
TAP	37	48	0
TAP	37	96	0
TAP	37	192	7
TAP	37	240	7
TAP	37	288	7
HLD	38	0	0	72
TAP	38	192	7
TAP	38	288	6
STR	39	0	5
SI_	39	0	5	96	144	0
STR	40	0	2
SI_	40	0	2	96	144	7
TAP	41	0	6
TAP	41	48	6
TAP	41	96	6
TAP	41	192	1
TAP	41	240	1
TAP	41	288	1
HLD	42	0	0	72
TAP	42	192	7
TAP	42	288	7
TAP	43	0	0
TAP	43	96	2
TAP	43	192	4
TAP	43	288	6
HLD	44	0	0	288
HLD	44	192	7	96
TAP	45	0	0
TAP	45	48	7
TAP	45	96	0
TAP	45	192	0
TAP	45	240	7
TAP	45	288	0
TAP	46	0	0
TAP	46	0	7
TAP	46	288	0
STR	47	0	0
SI_	47	0	0	96	96	2
STR	47	192	7
SI_	47	192	7	96	96	5
STR	48	0	2
SI_	48	0	2	96	96	4
STR	48	192	5
SI_	48	192	5	96	96	3
TAP	49	0	0
TAP	49	48	1
TAP	49	96	2
TAP	49	192	7
TAP	49	240	6
TAP	49	288	5
TAP	50	0	3
TAP	50	0	4
TAP	50	288	4
TAP	50	288	5
TAP	51	0	2
TAP	51	0	3
TAP	51	96	1
TAP	51	96	4
TAP	51	192	4
TAP	51	192	5
TAP	51	288	3
TAP	51	288	6
HLD	52	0	0	96
HLD	52	0	7	96
BRK	52	192	1
BRK	52	192	6
TAP	53	0	0
TAP	53	96	4
TAP	53	192	0
TAP	53	288	4
TAP	54	0	2
TAP	54	96	6
TAP	54	192	2
TAP	54	288	6
TAP	55	0	3
TAP	55	96	7
TAP	55	192	3
TAP	55	288	7
TAP	56	0	1
TAP	56	96	5
BRK	56	192	1
TAP	57	0	7
TAP	57	96	3
TAP	57	192	5
TAP	57	288	1
TAP	58	0	6
TAP	58	96	2
TAP	58	192	4
TAP	58	288	0
TAP	59	0	5
TAP	59	96	4
TAP	59	192	2
TAP	59	288	1
TAP	60	0	6
TAP	60	96	7
HLD	60	192	6	480
HLD	61	0	0	288
HLD	62	0	7	72
HLD	62	192	0	72
HLD	63	0	7	71
HLD	63	192	0	72
HLD	64	0	1	72
HLD	64	192	2	72
HLD	65	0	3	72
TAP	65	192	4
TAP	65	288	4
HLD	66	0	3	72
HLD	66	192	4	72
HLD	67	0	2	72
HLD	67	192	5	72
HLD	68	0	6	72
HLD	68	192	7	72
HLD	69	0	0	144
HLD	69	0	7	144
TAP	69	288	0
TAP	69	288	7
HLD	70	0	1	144
HLD	70	0	6	144
TAP	70	288	1
TAP	70	288	6
BRK	71	0	1
BRK	71	0	6

T_REC_TAP	159
T_REC_BRK	11
T_REC_XTP	0
T_REC_HLD	48
T_REC_XHO	0
T_REC_STR	10
T_REC_BST	0
T_REC_XST	0
T_REC_TTP	0
T_REC_THO	0
T_REC_SLD	10
T_REC_ALL	238
T_NUM_TAP	169
T_NUM_BRK	11
T_NUM_HLD	48
T_NUM_SLD	10
T_NUM_ALL	238
T_JUDGE_TAP	180
T_JUDGE_HLD	128
T_JUDGE_SLD	10
T_JUDGE_ALL	318
TTM_EACHPAIRS	29
TTM_SCR_TAP	84500
TTM_SCR_BRK	28600
TTM_SCR_HLD	48000
TTM_SCR_SLD	15000
TTM_SCR_ALL	176100
TTM_SCR_S	169750
TTM_SCR_SS	175000
TTM_RAT_ACV	10062

