VERSION	0.00.00	1.03.00
FES_MODE	0
BPM_DEF	142.000	142.000	142.000	142.000
MET_DEF	4	4
RESOLUTION	384
CLK_DEF	384
COMPATIBLE_CODE	MA2

BPM	0	0	142.000
MET	0	0	4	4

TAP	3	0	0
TAP	3	192	0
HLD	4	0	0	192
TAP	5	0	7
TAP	5	192	7
HLD	6	0	7	192
TAP	7	0	0
TAP	7	0	1
TAP	7	192	0
TAP	7	192	1
HLD	8	0	1	192
TAP	9	0	6
TAP	9	0	7
TAP	9	192	6
TAP	9	192	7
BRK	10	0	6
BRK	10	0	7
HLD	11	0	1	192
HLD	11	0	6	192
TAP	12	0	1
TAP	12	96	1
TAP	12	192	1
TAP	13	0	0
TAP	13	0	1
TAP	14	0	2
TAP	14	96	2
TAP	14	192	2
TAP	15	0	2
TAP	15	0	3
TAP	16	0	4
TAP	16	96	4
TAP	16	192	4
TAP	17	0	4
TAP	17	0	5
TAP	18	0	6
TAP	18	96	6
TAP	18	192	6
TAP	19	0	6
TAP	19	0	7
TAP	19	192	6
TAP	19	192	7
HLD	20	0	0	192
HLD	20	0	7	192
TAP	21	0	0
TAP	21	192	0
TAP	22	0	1
TAP	22	96	1
TAP	22	192	1
HLD	23	0	0	192
HLD	24	0	7	192
TAP	25	0	6
TAP	25	96	6
TAP	25	192	6
TAP	26	0	5
TAP	26	96	5
TAP	26	192	5
TAP	27	0	4
TAP	27	0	5
TAP	27	192	4
TAP	27	192	5
TAP	28	0	3
TAP	28	96	4
TAP	28	192	3
TAP	29	0	4
TAP	29	192	4
TAP	30	0	5
TAP	30	96	5
TAP	30	192	5
HLD	31	0	4	192
HLD	32	0	3	192
TAP	33	0	2
TAP	33	96	2
TAP	33	192	2
TAP	34	0	1
TAP	34	96	1
TAP	34	192	1
TAP	35	0	0
TAP	35	0	1
TAP	35	192	0
TAP	35	192	1
TAP	36	0	7
TAP	36	96	0
BRK	36	192	7
TAP	37	0	0
TAP	37	96	0
TAP	37	192	7
TAP	37	288	7
TAP	38	0	0
STR	39	0	0
SI_	39	0	0	96	288	4
TAP	41	0	3
TAP	41	96	3
TAP	41	192	4
TAP	41	288	4
TAP	42	0	3
HLD	43	0	2	192
HLD	43	0	5	192
TAP	44	0	3
TAP	44	0	4
TAP	44	192	2
TAP	44	192	5
TAP	45	0	3
TAP	45	96	4
TAP	45	192	3
TAP	45	288	4
TAP	46	0	3
STR	47	0	4
SI_	47	0	4	96	288	0
TAP	49	0	0
TAP	49	96	7
TAP	49	192	0
TAP	49	288	7
TAP	50	0	0
HLD	51	0	1	192
HLD	51	0	6	192
TAP	52	0	0
TAP	52	0	7
TAP	52	192	1
TAP	52	192	6
TAP	53	0	0
TAP	53	192	0
TAP	54	0	1
TAP	54	192	1
TAP	55	0	2
TAP	55	192	2
TAP	56	0	3
TAP	56	192	3
TAP	56	192	4
HLD	57	0	4	192
HLD	58	0	5	192
HLD	59	0	6	192
HLD	60	0	7	192
BRK	61	0	0
BRK	61	0	7
TAP	62	0	6
TAP	62	192	6
TAP	63	0	6
TAP	63	0	7
TAP	63	192	6
TAP	63	192	7
TAP	64	0	5
TAP	64	192	5
HLD	65	0	4	192
HLD	65	0	5	192
TAP	66	0	3
TAP	66	192	3
TAP	67	0	2
TAP	67	0	3
TAP	67	192	2
TAP	67	192	3
TAP	68	0	1
TAP	68	192	1
BRK	69	0	0
BRK	69	0	1
TAP	70	0	0
TAP	70	96	7
TAP	70	192	0
TAP	70	288	7
TAP	71	0	1
TAP	71	0	6

T_REC_TAP	128
T_REC_BRK	7
T_REC_XTP	0
T_REC_HLD	21
T_REC_XHO	0
T_REC_STR	2
T_REC_BST	0
T_REC_XST	0
T_REC_TTP	0
T_REC_THO	0
T_REC_SLD	2
T_REC_ALL	160
T_NUM_TAP	130
T_NUM_BRK	7
T_NUM_HLD	21
T_NUM_SLD	2
T_NUM_ALL	160
T_JUDGE_TAP	137
T_JUDGE_HLD	84
T_JUDGE_SLD	2
T_JUDGE_ALL	223
TTM_EACHPAIRS	31
TTM_SCR_TAP	65000
TTM_SCR_BRK	18200
TTM_SCR_HLD	21000
TTM_SCR_SLD	3000
TTM_SCR_ALL	107200
TTM_SCR_S	103350
TTM_SCR_SS	106500
TTM_RAT_ACV	10065

