VERSION	0.00.00	1.03.00
FES_MODE	0
BPM_DEF	150.000	150.000	150.000	150.000
MET_DEF	4	4
RESOLUTION	384
CLK_DEF	384
COMPATIBLE_CODE	MA2

BPM	0	0	150.000
MET	0	0	4	4

BRK	1	0	0
TAP	1	96	7
TAP	1	168	0
TAP	1	288	6
TAP	1	360	1
STR	2	96	7
SI_	2	96	7	96	48	3
TAP	2	168	0
TAP	2	288	6
TAP	2	360	1
TAP	3	96	7
TAP	3	168	0
TAP	3	288	6
TAP	3	360	1
TAP	4	96	7
TAP	4	168	0
TAP	4	192	7
TAP	4	216	1
TAP	4	240	6
TAP	4	264	6
TAP	4	288	1
TAP	4	312	1
TAP	4	336	1
TAP	4	360	1
TAP	5	0	7
TAP	5	48	1
TAP	5	48	6
TAP	5	96	0
TAP	5	120	1
TAP	5	144	7
TAP	5	168	0
TAP	5	192	7
TAP	5	240	1
TAP	5	240	6
TAP	5	288	0
TAP	5	312	1
TAP	5	336	7
TAP	5	360	0
TAP	6	0	7
TAP	6	48	1
TAP	6	48	6
TAP	6	96	0
TAP	6	120	1
TAP	6	144	7
TAP	6	168	0
TAP	6	192	7
TAP	6	240	1
TAP	6	240	6
TAP	6	288	0
TAP	6	312	1
TAP	6	336	7
TAP	6	360	0
TAP	7	0	4
TAP	7	48	2
TAP	7	48	5
TAP	7	96	3
TAP	7	120	2
TAP	7	144	4
TAP	7	168	3
TAP	7	192	4
TAP	7	240	2
TAP	7	240	5
TAP	7	288	3
TAP	7	312	2
TAP	7	336	4
TAP	7	360	3
TAP	8	0	4
TAP	8	48	2
TAP	8	48	5
TAP	8	96	3
TAP	8	120	2
TAP	8	144	4
TAP	8	168	3
TAP	8	168	4
TAP	8	240	2
TAP	8	240	5
TAP	8	312	1
TAP	8	312	6
TAP	8	360	0
TAP	8	360	7
TAP	9	0	1
TAP	9	0	6
TAP	9	48	3
TAP	9	72	4
TAP	9	96	3
TAP	9	144	2
TAP	9	168	5
TAP	9	192	2
TAP	9	240	1
TAP	9	264	6
TAP	9	288	1
TAP	9	336	0
TAP	9	360	7
TAP	10	0	0
TAP	10	48	7
TAP	10	72	6
STR	10	96	7
SCL	10	96	7	96	24	4
TAP	10	144	0
TAP	10	168	7
TAP	10	192	0
TAP	10	240	0
TAP	10	264	7
TAP	10	288	0
TAP	10	336	1
TAP	10	360	0
TAP	11	0	1
TAP	11	48	4
TAP	11	72	5
TAP	11	96	4
TAP	11	144	3
TAP	11	168	4
TAP	11	192	3
TAP	11	240	3
TAP	11	264	4
TAP	11	288	3
TAP	11	336	2
TAP	11	360	3
TAP	12	0	2
TAP	12	48	1
TAP	12	72	6
TAP	12	96	1
TAP	12	144	0
TAP	12	168	7
STR	12	192	0
SCR	12	192	0	96	48	3
TAP	12	216	7
TAP	12	240	6
TAP	12	264	5
TAP	13	0	0
TAP	13	0	7
TAP	13	48	1
TAP	13	72	0
TAP	13	96	4
TAP	13	120	5
TAP	13	144	3
TAP	13	168	4
TAP	13	192	3
TAP	13	240	1
TAP	13	264	0
TAP	13	288	4
TAP	13	312	5
TAP	13	336	3
TAP	13	360	4
TAP	14	0	3
TAP	14	48	1
TAP	14	72	0
STR	14	96	4
SCR	14	96	4	96	48	7
TAP	14	120	5
TAP	14	144	3
TAP	14	168	4
TAP	14	192	3
TAP	14	240	1
TAP	14	264	0
TAP	14	288	4
TAP	14	312	5
TAP	14	336	3
TAP	14	360	4
TAP	15	0	3
TAP	15	48	2
TAP	15	72	3
TAP	15	96	7
TAP	15	120	6
TAP	15	144	0
TAP	15	168	7
TAP	15	192	0
TAP	15	240	2
TAP	15	264	3
TAP	15	288	7
TAP	15	312	6
TAP	15	336	0
TAP	15	360	7
TAP	16	0	0
TAP	16	48	2
TAP	16	72	3
TAP	16	96	7
TAP	16	120	6
TAP	16	144	0
TAP	16	168	7
STR	16	192	0
SSL	16	192	0	96	72	4
TAP	16	264	0
TAP	17	0	1
TAP	17	24	6
TAP	17	72	2
TAP	17	96	7
TAP	17	120	1
TAP	17	144	6
TAP	17	168	6
TAP	17	192	7
TAP	17	216	6
TAP	17	240	7
TAP	17	264	6
TAP	17	288	0
BRK	17	312	7
BRK	18	0	7
TAP	18	48	6
TAP	18	72	6
TAP	18	96	0
TAP	18	120	7
TAP	18	144	7
TAP	18	168	7
TAP	18	192	1
TAP	18	240	1
TAP	18	264	1
TAP	18	288	5
TAP	18	336	5
TAP	18	360	3
BRK	19	0	5
BRK	19	48	5
TAP	19	96	4
TAP	19	120	3
TAP	19	144	4
TAP	19	168	4
TAP	19	192	2
TAP	19	216	5
TAP	19	240	2
TAP	19	264	5
TAP	19	288	1
BRK	19	312	6
TAP	20	0	0
TAP	20	72	7
TAP	20	96	3
TAP	20	120	6
TAP	20	144	3
TAP	20	168	6
STR	20	192	4
SI_	20	192	4	96	24	7
TAP	20	216	5
TAP	20	240	4
TAP	20	264	5
TAP	21	0	0
TAP	21	24	0
TAP	21	48	0
TAP	21	72	0
TAP	21	96	0
TAP	21	120	7
TAP	21	168	6
TAP	21	192	3
TAP	21	216	4
TAP	21	240	3
TAP	21	264	4
TAP	21	288	3
BRK	21	312	7
BRK	22	0	0
TAP	22	48	7
TAP	22	72	7
TAP	22	96	0
TAP	22	120	6
TAP	22	144	6
TAP	22	168	6
TAP	22	192	3
TAP	22	216	4
STR	22	288	1
SI_	22	288	1	96	24	5
TAP	22	336	1
TAP	22	360	4
STR	23	0	1
SI_	23	0	1	96	24	6
STR	23	192	1
SI_	23	192	1	96	24	6
TAP	23	216	1
TAP	23	240	1
TAP	23	264	1
TAP	24	0	0
TAP	24	72	1
TAP	24	120	7
TAP	24	168	1
TAP	24	192	7
TAP	24	216	7
TAP	24	240	7
TAP	24	264	7
TAP	24	288	0
TAP	24	312	0
TAP	24	336	0
TAP	24	360	0
TAP	25	0	5
TAP	25	24	5
TAP	25	72	3
TAP	25	120	1
TAP	25	168	0
STR	25	192	6
SI_	25	192	6	96	24	3
TAP	25	216	0
TAP	25	240	6
TAP	25	264	0
TAP	26	0	5
TAP	26	24	5
TAP	26	72	3
TAP	26	120	1
TAP	26	168	0
STR	26	192	6
SI_	26	192	6	96	24	2
TAP	26	216	0
TAP	26	240	6
TAP	26	264	0
TAP	27	0	6
TAP	27	24	6
TAP	27	72	4
TAP	27	120	2
TAP	27	168	0
STR	27	192	6
SI_	27	192	6	96	24	1
TAP	27	216	0
TAP	27	240	6
TAP	27	264	7
TAP	28	0	6
TAP	28	24	6
TAP	28	72	4
TAP	28	120	2
TAP	28	168	0
STR	28	192	6
SI_	28	192	6	96	24	2
TAP	28	216	7
TAP	28	240	6
TAP	28	264	7
TAP	29	0	5
TAP	29	24	5
TAP	29	72	3
TAP	29	120	1
TAP	29	168	0
STR	29	192	6
SI_	29	192	6	96	24	3
TAP	29	216	0
TAP	29	240	6
TAP	29	264	0
TAP	30	0	5
TAP	30	24	5
TAP	30	72	3
TAP	30	120	1
TAP	30	168	0
STR	30	192	6
SI_	30	192	6	96	24	2
TAP	30	216	0
TAP	30	240	6
TAP	30	264	7
TAP	31	0	5
TAP	31	24	5
TAP	31	72	6
TAP	31	120	1
TAP	31	168	0
TAP	31	192	6
TAP	31	216	6
TAP	31	264	7
TAP	31	312	1
TAP	31	360	0
TAP	32	0	7
TAP	32	24	7
TAP	32	72	0
TAP	32	96	6
TAP	32	120	6
TAP	32	168	1
TAP	32	192	5
TAP	32	240	5
STR	32	288	4
SI_	32	288	4	96	24	7
TAP	32	336	4
TAP	32	360	4
TAP	33	96	4
TAP	33	120	2
TAP	33	144	4
TAP	33	168	2
TAP	33	192	4
TAP	33	216	4
TAP	33	264	3
TAP	33	288	5
TAP	33	312	3
TAP	33	360	1
TAP	34	0	7
TAP	34	24	7
TAP	34	72	0
TAP	34	96	6
TAP	34	120	0
TAP	34	168	1
TAP	34	192	7
TAP	34	216	7
TAP	34	264	0
TAP	34	288	6
TAP	34	312	0
TAP	34	360	2
TAP	35	0	4
TAP	35	24	4
TAP	35	72	3
TAP	35	96	5
TAP	35	120	3
TAP	35	168	2
TAP	35	192	4
TAP	35	216	4
TAP	35	264	3
TAP	35	288	5
TAP	35	312	3
TAP	35	360	1
TAP	36	0	7
TAP	36	24	7
TAP	36	72	0
TAP	36	96	6
TAP	36	120	0
TAP	36	168	1
TAP	36	192	7
TAP	36	216	3
TAP	36	240	7
TAP	36	264	2
TAP	36	288	7
TAP	36	312	1
TAP	36	336	7
TAP	36	360	0
TAP	37	0	1
TAP	37	24	1
TAP	37	48	7
TAP	37	72	1
TAP	37	96	6
TAP	37	120	2
TAP	37	144	5
TAP	37	168	4
TAP	37	192	3
TAP	37	216	3
TAP	37	240	5
TAP	37	264	2
TAP	37	288	6
TAP	37	312	1
TAP	37	336	7
TAP	37	360	0
TAP	38	0	1
TAP	38	24	1
TAP	38	48	7
TAP	38	72	0
TAP	38	96	4
TAP	38	120	3
TAP	38	144	5
TAP	38	168	4
TAP	38	192	3
TAP	38	216	3
TAP	38	240	4
TAP	38	264	3
TAP	38	288	7
TAP	38	312	0
TAP	38	336	6
TAP	38	360	7
TAP	39	0	0
TAP	39	24	0
TAP	39	48	7
TAP	39	72	1
TAP	39	96	6
TAP	39	120	2
TAP	39	144	5
TAP	39	168	4
TAP	39	192	3
TAP	39	216	3
TAP	39	240	5
TAP	39	264	2
TAP	39	288	6
TAP	39	312	1
TAP	39	336	7
TAP	39	360	0
TAP	40	0	1
TAP	40	24	1
TAP	40	48	7
TAP	40	72	0
TAP	40	96	4
TAP	40	120	3
TAP	40	144	5
TAP	40	168	3
TAP	40	192	5
TAP	40	216	2
TAP	40	240	5
TAP	40	264	2
TAP	40	288	4
TAP	40	312	3
TAP	40	336	4
TAP	40	360	3
BRK	41	0	7
TAP	41	96	1
TAP	41	120	6
TAP	41	168	0
TAP	41	168	7
BRK	41	192	6
TAP	41	288	1
TAP	41	312	6
TAP	41	360	0
TAP	41	360	7
BRK	42	0	6
TAP	42	96	6
TAP	42	120	1
TAP	42	168	0
TAP	42	168	7
BRK	42	192	1
TAP	42	288	6
TAP	42	312	1
TAP	42	360	0
TAP	42	360	7
BRK	43	0	1
TAP	43	96	6
TAP	43	120	1
TAP	43	168	0
TAP	43	168	7
BRK	43	192	1
TAP	43	192	6
TAP	43	288	6
TAP	43	312	1
TAP	43	360	0
TAP	43	360	7
TAP	46	0	2
TAP	46	0	3
TAP	46	48	4
TAP	46	192	4
TAP	46	192	5
TAP	46	240	3
TAP	47	0	0
TAP	47	0	7
TAP	47	48	0
TAP	47	96	0
TAP	47	96	7
TAP	47	144	7
TAP	47	192	0
TAP	47	192	7
TAP	47	216	0
TAP	47	216	7
TAP	47	240	0
TAP	47	240	7
TAP	47	264	0
TAP	47	264	7
TAP	47	288	0
TAP	47	288	7
TAP	47	312	0
TAP	47	312	7
TAP	47	336	0
TAP	47	336	7
TAP	47	360	0
TAP	47	360	7
TAP	48	0	7
TAP	48	48	1
TAP	48	48	6
TAP	48	96	0
TAP	48	120	1
TAP	48	144	7
TAP	48	168	0
TAP	48	192	7
TAP	48	240	1
TAP	48	240	6
TAP	48	288	0
TAP	48	312	1
TAP	48	336	7
TAP	48	360	0
TAP	49	0	7
TAP	49	48	1
TAP	49	48	6
TAP	49	96	0
TAP	49	120	1
TAP	49	144	7
TAP	49	168	0
TAP	49	192	7
TAP	49	240	1
TAP	49	240	6
TAP	49	288	0
TAP	49	312	1
TAP	49	336	7
TAP	49	360	0
TAP	50	0	4
TAP	50	48	2
TAP	50	48	5
TAP	50	96	3
TAP	50	120	2
TAP	50	144	4
TAP	50	168	3
TAP	50	192	4
TAP	50	240	2
TAP	50	240	5
TAP	50	288	3
TAP	50	312	2
TAP	50	336	4
TAP	50	360	3
TAP	51	0	4
TAP	51	48	2
TAP	51	48	5
TAP	51	96	3
TAP	51	120	2
TAP	51	144	4
TAP	51	168	3
STR	51	192	0
SCR	51	192	0	96	48	3
TAP	51	216	7
TAP	51	240	6
TAP	51	264	5
TAP	52	0	0
TAP	52	0	7
TAP	52	48	1
TAP	52	72	0
TAP	52	96	4
TAP	52	120	5
TAP	52	144	3
TAP	52	168	4
TAP	52	192	3
TAP	52	240	1
TAP	52	264	0
TAP	52	288	4
TAP	52	312	5
TAP	52	336	3
TAP	52	360	4
TAP	53	0	3
TAP	53	48	1
TAP	53	72	0
STR	53	96	4
SCR	53	96	4	96	48	7
TAP	53	120	5
TAP	53	144	3
TAP	53	168	4
TAP	53	192	3
TAP	53	216	2
TAP	53	240	1
TAP	53	264	0
TAP	53	288	4
TAP	53	312	5
TAP	53	336	3
TAP	53	360	4
TAP	54	0	3
TAP	54	48	2
TAP	54	72	3
TAP	54	96	7
TAP	54	120	6
TAP	54	144	0
TAP	54	168	7
TAP	54	192	0
TAP	54	240	2
TAP	54	264	3
TAP	54	288	7
TAP	54	312	6
TAP	54	336	0
TAP	54	360	7
TAP	55	0	0
TAP	55	24	5
TAP	55	48	2
TAP	55	72	3
TAP	55	96	7
TAP	55	120	6
TAP	55	144	0
TAP	55	168	7
STR	55	192	0
SSL	55	192	0	96	72	4
TAP	55	192	7
TAP	55	264	0
TAP	55	264	7

T_REC_TAP	590
T_REC_BRK	14
T_REC_XTP	0
T_REC_HLD	0
T_REC_XHO	0
T_REC_STR	19
T_REC_BST	0
T_REC_XST	0
T_REC_TTP	0
T_REC_THO	0
T_REC_SLD	19
T_REC_ALL	642
T_NUM_TAP	609
T_NUM_BRK	14
T_NUM_HLD	0
T_NUM_SLD	19
T_NUM_ALL	642
T_JUDGE_TAP	623
T_JUDGE_HLD	0
T_JUDGE_SLD	19
T_JUDGE_ALL	642
TTM_EACHPAIRS	42
TTM_SCR_TAP	304500
TTM_SCR_BRK	36400
TTM_SCR_HLD	0
TTM_SCR_SLD	28500
TTM_SCR_ALL	369400
TTM_SCR_S	357000
TTM_SCR_SS	368000
TTM_RAT_ACV	10038

